<?xml version="1.0" standalone="no"?>
<!DOCTYPE svg PUBLIC "-//W3C//DTD SVG 1.1//EN" "http://www.w3.org/Graphics/SVG/1.1/DTD/svg11.dtd" >
<svg>
<metadata>
Created by FontForge 20110222 at Thu Nov 26 16:34:10 2015
 By www-data
Circe is a geometric sans-serif with some humanist features in 6 weights from Thin to Extra Bold. Name of the font derives from both its geometric shapes and artificial, kinky nature. While being clean and simple in its basic form, Circe can become more intricate with its numerous decorative variations of characters, tempting and challenging the designer to use more and more of them and finally -- probably -- making him look foolish like the sailors who got to Circe's island. Its oversized character set not only allows using Circe for almost all European languages (based on Latin and Cyrillic scripts) but also contains a lot of alternates and swash variants organized in stylistic sets which make the font look in several completely different ways. Circe is good for both text setting in small point sizes and display purposes, such as magazine headlines, posters and so on. Designed by Alexandra Korolkova and released by ParaType in 2011.
</metadata>
<defs>
<font id="Circe-Light" horiz-adv-x="662" >
  <font-face 
    font-family="Circe Light"
    font-weight="350"
    font-stretch="normal"
    units-per-em="1000"
    panose-1="2 11 4 2 2 2 3 2 2 3"
    ascent="773"
    descent="-227"
    x-height="450"
    cap-height="700"
    bbox="-522 -367 1686 999"
    underline-thickness="50"
    underline-position="-50"
    stemh="52"
    stemv="55"
    unicode-range="U+0020-FB02"
  />
<missing-glyph horiz-adv-x="235" 
 />
    <glyph glyph-name="uniF350.var.accented" unicode="&#xf350;`" horiz-adv-x="574" 
d="M17 0l247 529h46l247 -529h-59l-77 167h-271l-77 -167h-56zM285 461l-112 -243h224zM402 719l-125 -131l-27 28l120 142z" />
    <glyph glyph-name="uniF355.var.accented" unicode="&#xf355;`" horiz-adv-x="481" 
d="M89 0v525h324v-52h-269v-181h245v-52h-245v-188h277v-52h-332zM359 719l-125 -131l-27 28l120 142z" />
    <glyph glyph-name="uniF358.var.accented" unicode="&#xf358;`" horiz-adv-x="650" 
d="M138 0h-49v525h55v-438l368 438h49v-525h-55v438zM433 719l-125 -131l-27 28l120 142z" />
    <glyph glyph-name="uniF35E.var.accented" unicode="&#xf35e;`" horiz-adv-x="650" 
d="M43 262c0 152 118 270 282 270c161 0 282 -112 282 -270c0 -155 -121 -270 -282 -270s-282 111 -282 270zM101 262c0 -124 98 -218 224 -218c133 0 224 94 224 218c0 126 -98 218 -224 218c-127 0 -224 -92 -224 -218zM435 719l-125 -131l-27 28l120 142z" />
    <glyph glyph-name="uniF363.var.accented" unicode="&#xf363;`" horiz-adv-x="530" 
d="M518 525l-198 -404c-39 -81 -78 -121 -137 -121c-24 0 -47 7 -63 18l20 47c15 -9 29 -14 45 -14c36 0 57 31 74 63l11 19l-257 392h68l217 -337l163 337h57zM383 719l-125 -131l-27 28l120 142z" />
    <glyph glyph-name="uniF36B.var.accented" unicode="&#xf36b;`" horiz-adv-x="682" 
d="M538 0v525h55v-525h-55zM223 277c-21 0 -48 -1 -79 -3v-222c24 -1 46 -2 76 -2c103 0 159 40 159 118c0 70 -54 109 -156 109zM144 525v-199c33 2 61 3 82 3c144 0 211 -61 211 -160c0 -109 -85 -171 -223 -171c-48 0 -92 2 -125 2v525h55zM443 719l-125 -131l-27 28
l120 142z" />
    <glyph glyph-name="uniF36D.var.accented" unicode="&#xf36d;`" horiz-adv-x="554" 
d="M160 242v52h294c-12 117 -98 186 -231 186c-63 0 -116 -12 -159 -43l-23 41c43 34 111 54 184 54c170 0 286 -104 286 -268c0 -158 -113 -271 -290 -271c-74 0 -141 20 -189 55l24 45c45 -30 101 -48 171 -48c130 0 218 77 228 197h-295zM343 719l-125 -131l-27 28
l120 142z" />
    <glyph glyph-name="uniF36E.var.accented" unicode="&#xf36e;`" horiz-adv-x="866" 
d="M89 0v525h55v-231h137c13 136 116 238 268 238c164 0 274 -111 274 -269c0 -156 -110 -270 -274 -270c-150 0 -260 101 -269 249h-136v-242h-55zM337 263c0 -125 87 -218 213 -218c131 0 215 94 215 218c0 126 -87 217 -215 217c-125 0 -213 -91 -213 -217zM504 719
l-125 -131l-27 28l120 142z" />
    <glyph glyph-name="uniF36F.var.accented" unicode="&#xf36f;`" horiz-adv-x="514" 
d="M370 0v196h-128l-153 -196h-65l161 205c-60 22 -116 74 -116 149c0 95 68 174 215 174c50 0 108 -3 141 -3v-525h-55zM236 248h134v225c-22 1 -57 3 -92 3c-103 0 -151 -54 -151 -119c0 -57 54 -101 109 -109zM373 719l-125 -131l-27 28l120 142z" />
    <glyph glyph-name="uniF371.var.accented" unicode="&#xf371;`" horiz-adv-x="481" 
d="M117 661c0 18 15 31 33 31c15 0 31 -13 31 -31c0 -20 -16 -33 -31 -33c-18 0 -33 13 -33 33zM313 661c0 18 15 31 33 31c16 0 31 -13 31 -31c0 -20 -15 -33 -31 -33c-18 0 -33 13 -33 33zM89 0v525h324v-52h-269v-181h245v-52h-245v-188h277v-52h-332zM329 719l-125 -131
l-27 28l120 142z" />
    <glyph glyph-name="afii10017.var.accented" unicode="&#x410;`" horiz-adv-x="697" 
d="M21 0l305 706h45l305 -706h-59l-102 238h-336l-102 -238h-56zM347 630l-146 -340h291zM499 824l-182 -86l-16 31l179 99z" />
    <glyph glyph-name="afii10022.var.accented" unicode="&#x415;`" horiz-adv-x="575" 
d="M111 0v700h387v-52h-332v-267h302v-52h-302v-277h342v-52h-397zM441 824l-182 -86l-16 31l179 99z" />
    <glyph glyph-name="afii10026.var.accented" unicode="&#x418;`" horiz-adv-x="797" 
d="M160 0h-49v700h55v-610l471 610h49v-700h-55v610zM531 824l-182 -86l-16 31l179 99z" />
    <glyph glyph-name="afii10032.var.accented" unicode="&#x41e;`" horiz-adv-x="810" 
d="M54 350c0 203 149 359 351 359c199 0 351 -150 351 -359c0 -206 -152 -359 -351 -359s-351 150 -351 359zM112 350c0 -175 128 -307 293 -307c171 0 293 133 293 307c0 177 -128 307 -293 307c-166 0 -293 -130 -293 -307zM541 824l-182 -86l-16 31l179 99z" />
    <glyph glyph-name="afii10037.var.accented" unicode="&#x423;`" horiz-adv-x="652" 
d="M635 700l-244 -542c-48 -107 -93 -158 -162 -158c-27 0 -58 8 -77 23l20 47c19 -13 36 -19 56 -19c46 0 76 40 99 88l13 28l-323 533h62l288 -478l212 478h56zM484 824l-182 -86l-16 31l179 99z" />
    <glyph glyph-name="afii10045.var.accented" unicode="&#x42b;`" horiz-adv-x="829" 
d="M663 0v700h55v-700h-55zM269 377c-27 0 -61 -1 -103 -6v-318c31 -1 60 -3 99 -3c135 0 209 58 209 170c0 100 -70 157 -205 157zM166 700v-276c43 3 79 5 106 5c177 0 260 -80 260 -208c0 -145 -104 -223 -273 -223c-56 0 -107 2 -148 2v700h55zM537 824l-182 -86l-16 31
l179 99z" />
    <glyph glyph-name="afii10047.var.accented" unicode="&#x42d;`" horiz-adv-x="680" 
d="M198 331v52h372c-13 170 -130 274 -306 274c-67 0 -134 -17 -187 -59l-23 41c52 46 136 70 222 70c210 0 350 -138 350 -356c0 -208 -138 -362 -353 -362c-90 0 -170 26 -232 73l25 45c59 -42 128 -66 206 -66c171 0 289 117 298 288h-372zM429 824l-182 -86l-16 31
l179 99z" />
    <glyph glyph-name="afii10048.var.accented" unicode="&#x42e;`" horiz-adv-x="1076" 
d="M111 0v700h55v-317h178c14 186 149 326 337 326c199 0 341 -150 341 -359c0 -206 -142 -359 -341 -359c-187 0 -329 141 -338 340h-177v-331h-55zM401 350c0 -175 119 -307 281 -307c172 0 282 133 282 307c0 177 -116 307 -282 307c-163 0 -281 -130 -281 -307zM691 824
l-182 -86l-16 31l179 99z" />
    <glyph glyph-name="afii10049.var.accented" unicode="&#x42f;`" horiz-adv-x="615" 
d="M449 0v274h-156l-199 -274h-63l208 282c-78 26 -152 96 -152 197c0 124 84 224 262 224c48 0 114 -3 155 -3v-700h-55zM286 326h163v322c-28 1 -72 3 -110 3c-131 0 -194 -76 -194 -169c0 -83 70 -145 141 -156zM502 824l-182 -86l-16 31l179 99z" />
    <glyph glyph-name="afii10023.var.accented" unicode="&#x401;`" horiz-adv-x="575" 
d="M146 804c0 19 14 32 31 32c15 0 29 -13 29 -32c0 -22 -14 -35 -29 -35c-17 0 -31 13 -31 35zM407 804c0 19 15 32 31 32c15 0 30 -13 30 -32c0 -22 -15 -35 -30 -35c-16 0 -31 13 -31 35zM406 853l-146 -112l-19 12l123 115zM111 0v700h387v-52h-332v-267h302v-52h-302
v-277h342v-52h-397z" />
    <glyph glyph-name="afii10065.var.accented" unicode="&#x430;`" horiz-adv-x="459" 
d="M93 375l-14 43c42 26 90 41 143 41c125 0 167 -66 167 -180v-279h-52v69c-28 -38 -72 -75 -154 -75c-83 0 -139 52 -139 134c0 90 74 140 171 140c36 0 86 -8 122 -34c0 107 -6 176 -118 176c-53 0 -86 -13 -126 -35zM199 43c76 0 113 38 138 71v75
c-33 24 -71 36 -117 36c-59 0 -121 -28 -121 -94c0 -56 44 -88 100 -88zM344 685l-116 -143l-32 23l108 151z" />
    <glyph glyph-name="afii10070.var.accented" unicode="&#x435;`" horiz-adv-x="524" 
d="M435 95l17 -40c-41 -43 -106 -64 -166 -64c-142 0 -239 92 -239 234c0 131 80 234 228 234c116 0 204 -80 204 -203c0 -17 -1 -30 -3 -42h-371c4 -108 76 -174 184 -174c61 0 115 23 146 55zM270 410c-100 0 -159 -65 -168 -153h324c-2 95 -62 153 -156 153zM376 685
l-116 -143l-32 23l108 151z" />
    <glyph glyph-name="afii10074.var.accented" unicode="&#x438;`" horiz-adv-x="562" 
d="M131 0h-52v450h52v-375l300 375h52v-450h-52v375zM382 685l-116 -143l-32 23l108 151z" />
    <glyph glyph-name="afii10080.var.accented" unicode="&#x43e;`" horiz-adv-x="567" 
d="M47 225c0 135 96 234 236 234s236 -99 236 -234s-96 -234 -236 -234s-236 99 -236 234zM102 225c0 -108 76 -185 181 -185c106 0 181 76 181 185c0 108 -75 185 -181 185c-104 0 -181 -76 -181 -185zM387 685l-116 -143l-32 23l108 151z" />
    <glyph glyph-name="afii10085.var.accented" unicode="&#x443;`" horiz-adv-x="481" 
d="M467 450l-182 -450c-66 -161 -108 -200 -169 -200c-29 0 -53 9 -77 23l17 40c17 -8 35 -15 53 -15c46 0 79 37 117 128l10 24l-222 450h62l154 -318l32 -70c7 23 16 47 25 72l121 316h59zM361 685l-116 -143l-32 23l108 151z" />
    <glyph glyph-name="afii10093.var.accented" unicode="&#x44b;`" horiz-adv-x="621" 
d="M79 0v450h52v-151h78c138 0 178 -68 178 -148c0 -79 -44 -151 -184 -151h-124zM200 250h-69v-201h68c99 0 133 37 133 101c0 63 -36 100 -132 100zM490 0v450h52v-450h-52zM403 685l-116 -143l-32 23l108 151z" />
    <glyph glyph-name="afii10095.var.accented" unicode="&#x44d;`" horiz-adv-x="490" 
d="M152 208v43h237c-10 103 -84 159 -183 159c-60 0 -112 -22 -146 -56l-23 39c40 43 109 66 168 66c139 0 238 -91 238 -234c0 -131 -96 -234 -224 -234c-70 0 -134 15 -177 55l25 39c36 -32 93 -45 148 -45c96 0 168 66 175 168h-238zM323 685l-116 -143l-32 23l108 151z
" />
    <glyph glyph-name="afii10096.var.accented" unicode="&#x44e;`" horiz-adv-x="750" 
d="M79 0v450h55v-194h114c13 119 100 203 225 203c136 0 229 -99 229 -234s-94 -234 -229 -234c-128 0 -217 89 -226 213h-113v-204h-55zM305 225c0 -109 71 -182 170 -182c100 0 169 74 169 182c0 107 -68 182 -169 182c-100 0 -170 -74 -170 -182zM481 685l-116 -143
l-32 23l108 151z" />
    <glyph glyph-name="afii10097.var.accented" unicode="&#x44f;`" horiz-adv-x="477" 
d="M264 450h134v-450h-52v168h-112l-129 -168h-64l142 180c-53 9 -108 55 -108 128c0 74 47 142 189 142zM130 307c0 -57 55 -90 97 -90h119v184h-91c-91 0 -125 -42 -125 -94zM387 685l-116 -143l-32 23l108 151z" />
    <glyph glyph-name="afii10071.var.accented" unicode="&#x451;`" horiz-adv-x="524" 
d="M116 614c0 17 13 28 29 28c14 0 27 -11 27 -28c0 -19 -13 -30 -27 -30c-16 0 -29 11 -29 30zM360 614c0 17 14 28 29 28c14 0 27 -11 27 -28c0 -19 -13 -30 -27 -30c-15 0 -29 11 -29 30zM349 685l-116 -143l-26 18l108 151zM435 95l17 -40c-41 -43 -106 -64 -166 -64
c-142 0 -239 92 -239 234c0 131 80 234 228 234c116 0 204 -80 204 -203c0 -17 -1 -30 -3 -42h-371c4 -108 76 -174 184 -174c61 0 115 23 146 55zM270 410c-100 0 -159 -65 -168 -153h324c-2 95 -62 153 -156 153z" />
    <glyph glyph-name="fi" unicode="fi" horiz-adv-x="501" 
d="M360 0v401h-215v-401h-52v516c0 132 70 193 177 193c76 0 118 -29 143 -58l-37 -32c-22 23 -51 41 -98 41c-83 0 -133 -44 -133 -153v-57h267v-450h-52z" />
    <glyph glyph-name="fl" unicode="fl" horiz-adv-x="554" 
d="M352 116v514c-22 16 -51 30 -90 30c-77 0 -117 -44 -117 -146v-64h120v-49h-120v-401h-52v523c0 125 55 186 155 186c50 0 88 -14 113 -33h43v-532c0 -68 17 -101 64 -101c25 0 48 11 63 22l13 -41c-21 -16 -54 -30 -95 -30c-67 0 -97 40 -97 122z" />
    <glyph glyph-name=".notdef" horiz-adv-x="235" 
 />
    <glyph glyph-name="space" unicode=" " horiz-adv-x="235" 
 />
    <glyph glyph-name="exclam" unicode="!" horiz-adv-x="310" 
d="M127 193v507h55v-507h-55zM116 38c0 18 16 36 40 36c21 0 37 -18 37 -36c0 -21 -16 -40 -37 -40c-24 0 -40 19 -40 40z" />
    <glyph glyph-name="quotedbl" unicode="&#x22;" horiz-adv-x="401" 
d="M250 492v208h52v-208h-52zM99 492v208h52v-208h-52z" />
    <glyph glyph-name="numbersign" unicode="#" horiz-adv-x="688" 
d="M320 6l74 201h-210l-80 -216l-41 15l74 201h-97v46h114l72 194h-186v46h203l81 216l41 -15l-75 -201h210l81 216l41 -14l-75 -202h101v-46h-118l-71 -194h189v-46h-206l-80 -216zM273 447l-72 -194h210l72 194h-210z" />
    <glyph glyph-name="dollar" unicode="$" horiz-adv-x="589" 
d="M455 174c0 198 -362 126 -362 360c0 91 67 164 182 174v82h52v-82c68 -6 128 -32 163 -70l-31 -41c-39 40 -92 60 -156 60c-95 0 -152 -49 -152 -123c0 -196 362 -116 362 -359c0 -102 -79 -171 -186 -182v-93h-52v92c-78 5 -164 41 -197 100l33 38
c42 -56 119 -87 182 -87c86 0 162 45 162 131z" />
    <glyph glyph-name="percent" unicode="%" horiz-adv-x="850" 
d="M151 13l521 696l31 -22l-521 -696zM51 542c0 96 74 162 172 162s172 -66 172 -162s-74 -163 -172 -163s-172 67 -172 163zM100 542c0 -73 59 -120 123 -120c66 0 123 47 123 120c0 72 -58 119 -123 119s-123 -47 -123 -119zM455 159c0 96 74 162 172 162
s172 -66 172 -162s-74 -163 -172 -163s-172 67 -172 163zM504 159c0 -73 59 -120 123 -120c66 0 123 47 123 120c0 72 -58 119 -123 119s-123 -47 -123 -119z" />
    <glyph glyph-name="ampersand" unicode="&#x26;" horiz-adv-x="737" 
d="M604 0l-85 107c-47 -67 -119 -116 -223 -116c-125 0 -218 83 -218 199c0 117 92 195 174 249c-58 14 -102 64 -102 131c0 81 67 139 145 139s145 -58 145 -139c0 -68 -52 -125 -115 -132l198 -252c41 71 66 166 66 264h51c0 -111 -30 -223 -85 -306l114 -144h-65zM297 43
c86 0 148 42 190 105l-202 261c-77 -56 -149 -122 -149 -209c0 -94 76 -157 161 -157zM199 570c0 -52 43 -95 96 -95s96 43 96 95c0 53 -44 96 -96 96c-53 0 -96 -42 -96 -96z" />
    <glyph glyph-name="quotesingle" unicode="'" horiz-adv-x="250" 
d="M99 492v208h52v-208h-52z" />
    <glyph glyph-name="parenleft" unicode="(" horiz-adv-x="276" 
d="M276 -177l-34 -29c-152 131 -202 284 -202 431s50 293 203 431l33 -29c-135 -126 -184 -255 -184 -402s59 -293 184 -402z" />
    <glyph glyph-name="parenright" unicode=")" horiz-adv-x="276" 
d="M34 -206l-34 29c125 109 184 255 184 402s-49 276 -184 402l33 29c153 -138 203 -284 203 -431s-50 -300 -202 -431z" />
    <glyph glyph-name="asterisk" unicode="*" horiz-adv-x="460" 
d="M194 668c0 23 17 41 39 41c21 0 39 -18 39 -41c0 -20 -18 -38 -39 -38c-22 0 -39 18 -39 38zM191 415c0 21 18 41 41 41c20 0 37 -20 37 -41c0 -22 -17 -39 -37 -39c-23 0 -41 17 -41 39zM297 602c0 23 18 41 41 41c21 0 39 -18 39 -41c0 -21 -18 -38 -39 -38
c-23 0 -41 17 -41 38zM297 481c0 21 18 40 41 40c21 0 39 -19 39 -40c0 -22 -18 -39 -39 -39c-23 0 -41 17 -41 39zM83 481c0 21 17 40 41 40c20 0 38 -19 38 -40c0 -22 -18 -39 -38 -39c-24 0 -41 17 -41 39zM83 602c0 23 17 41 41 41c20 0 38 -18 38 -41
c0 -21 -18 -38 -38 -38c-24 0 -41 17 -41 38z" />
    <glyph glyph-name="plus" unicode="+" horiz-adv-x="589" 
d="M71 337v46h198v199h49v-199h199v-46h-199v-201h-49v201h-198z" />
    <glyph glyph-name="comma" unicode="," horiz-adv-x="200" 
d="M60 33c0 21 15 37 41 37c32 0 59 -33 59 -86c0 -68 -43 -115 -97 -131l-14 26c28 9 61 35 67 79c3 30 -4 45 -10 52c-4 -8 -11 -10 -18 -10c-15 0 -28 14 -28 33z" />
    <glyph glyph-name="hyphen" unicode="-" horiz-adv-x="399" 
d="M85 247v49h229v-49h-229z" />
    <glyph glyph-name="period" unicode="." horiz-adv-x="184" 
d="M54 38c0 18 16 36 40 36c21 0 36 -18 36 -36c0 -21 -15 -40 -36 -40c-24 0 -40 19 -40 40z" />
    <glyph glyph-name="slash" unicode="/" horiz-adv-x="317" 
d="M-30 -192l336 901l41 -15l-335 -902z" />
    <glyph glyph-name="zero" unicode="0" horiz-adv-x="572" 
d="M65 350c0 207 65 358 221 358s221 -151 221 -358c0 -208 -63 -358 -219 -358s-223 150 -223 358zM120 350c0 -187 49 -309 168 -309c121 0 164 121 164 309s-45 309 -166 309c-120 0 -166 -122 -166 -309z" />
    <glyph glyph-name="one" unicode="1" horiz-adv-x="372" 
d="M45 579l159 127h36v-706h-52v630l-115 -93z" />
    <glyph glyph-name="two" unicode="2" horiz-adv-x="529" 
d="M51 0v43c114 112 331 323 331 483c0 67 -44 130 -134 130c-61 0 -130 -38 -144 -127l-45 17c15 106 104 162 192 162c129 0 186 -90 186 -172c0 -195 -260 -434 -318 -487h349v-49h-417z" />
    <glyph glyph-name="three" unicode="3" horiz-adv-x="533" 
d="M249 -9c-89 0 -168 37 -204 121l31 36c36 -75 106 -105 173 -105c98 0 158 65 158 150c0 83 -65 139 -152 139h-60v52h54c66 0 131 60 131 142c0 85 -53 131 -134 131c-79 0 -125 -39 -152 -96l-31 33c28 73 98 115 187 115c114 0 185 -66 185 -176
c0 -73 -39 -140 -111 -169v-3c88 -13 138 -89 138 -170c0 -123 -91 -200 -213 -200z" />
    <glyph glyph-name="four" unicode="4" horiz-adv-x="538" 
d="M349 0v185h-325v35l306 480h60l-296 -463h255v213h52v-213h103v-52h-103v-185h-52z" />
    <glyph glyph-name="five" unicode="5" horiz-adv-x="518" 
d="M113 364l43 336h304v-52h-259l-30 -228c17 5 43 9 69 9c128 0 221 -83 221 -212c0 -141 -101 -226 -217 -226c-75 0 -156 33 -199 111l31 37c37 -65 108 -96 169 -96c91 0 161 72 161 172c0 95 -74 167 -187 167c-39 0 -80 -8 -106 -18z" />
    <glyph glyph-name="six" unicode="6" horiz-adv-x="550" 
d="M54 248c0 257 182 427 337 461l22 -39c-133 -32 -271 -152 -299 -355c28 62 89 114 182 114c121 0 203 -89 203 -216c0 -131 -101 -222 -208 -222c-156 0 -237 120 -237 257zM109 248c0 -106 59 -205 181 -205c86 0 154 76 154 166c0 94 -56 171 -164 171
c-98 0 -155 -73 -171 -132z" />
    <glyph glyph-name="seven" unicode="7" horiz-adv-x="475" 
d="M34 648v52h404v-32l-266 -668h-58l260 648h-340z" />
    <glyph glyph-name="eight" unicode="8" horiz-adv-x="591" 
d="M280 386h31c64 0 130 58 130 135c0 87 -72 136 -147 136c-76 0 -144 -51 -144 -136c0 -77 66 -135 130 -135zM310 334h-26c-85 0 -158 -61 -158 -144c0 -86 76 -147 169 -147c96 0 170 57 170 147c0 91 -71 144 -155 144zM296 -9c-118 0 -225 71 -225 190
c0 84 56 157 142 177v3c-67 20 -118 92 -118 166c0 110 90 182 200 182s201 -72 201 -182c0 -68 -45 -138 -121 -165v-3c83 -11 145 -81 145 -174c0 -123 -106 -194 -224 -194z" />
    <glyph glyph-name="nine" unicode="9" horiz-adv-x="548" 
d="M494 449c0 -262 -148 -431 -342 -458l-19 41c165 30 283 155 301 350c-27 -62 -89 -107 -178 -107c-125 0 -208 96 -208 214c0 131 110 220 216 220c156 0 230 -117 230 -260zM439 449c0 106 -52 208 -173 208c-86 0 -163 -74 -163 -164c0 -87 57 -169 166 -169
c97 0 155 66 170 125z" />
    <glyph glyph-name="colon" unicode=":" horiz-adv-x="322" 
d="M123 423c0 18 16 36 40 36c21 0 36 -18 36 -36c0 -21 -15 -40 -36 -40c-24 0 -40 19 -40 40zM123 38c0 18 16 36 40 36c21 0 36 -18 36 -36c0 -21 -15 -40 -36 -40c-24 0 -40 19 -40 40z" />
    <glyph glyph-name="semicolon" unicode=";" horiz-adv-x="325" 
d="M123 423c0 18 16 36 40 36c21 0 36 -18 36 -36c0 -21 -15 -40 -36 -40c-24 0 -40 19 -40 40zM123 33c0 21 15 37 41 37c32 0 59 -33 59 -86c0 -68 -43 -115 -97 -131l-14 26c28 9 61 35 67 79c3 30 -4 45 -10 52c-4 -8 -11 -10 -18 -10c-15 0 -28 14 -28 33z" />
    <glyph glyph-name="less" unicode="&#x3c;" horiz-adv-x="589" 
d="M484 89l-420 262v22l420 260v-57l-347 -214l347 -216v-57z" />
    <glyph glyph-name="equal" unicode="=" horiz-adv-x="589" 
d="M71 423v46h446v-46h-446zM71 251v46h446v-46h-446z" />
    <glyph glyph-name="greater" unicode="&#x3e;" horiz-adv-x="589" 
d="M524 351l-419 -262v57l347 216l-347 214v57l419 -260v-22z" />
    <glyph glyph-name="question" unicode="?" horiz-adv-x="460" 
d="M371 528c0 73 -60 129 -145 129c-63 0 -116 -29 -154 -81l-32 33c36 58 108 100 190 100c125 0 196 -78 196 -170c0 -186 -203 -178 -203 -314c0 -10 2 -21 4 -33l-47 -2c-3 16 -5 30 -5 43c0 148 196 142 196 295zM163 38c0 18 15 36 39 36c21 0 37 -18 37 -36
c0 -21 -16 -40 -37 -40c-24 0 -39 19 -39 40z" />
    <glyph glyph-name="at" unicode="@" horiz-adv-x="1014" 
d="M652 0v58c-34 -37 -92 -67 -152 -67c-135 0 -224 92 -224 234c0 131 106 234 249 234c68 0 134 -20 179 -49v-361h22c106 0 168 102 168 219c0 197 -156 344 -377 344c-227 0 -397 -164 -397 -387c0 -218 170 -387 397 -387c38 0 74 4 108 12l5 -48
c-36 -8 -74 -13 -113 -13c-259 0 -446 190 -446 436c0 242 187 436 446 436c244 0 426 -161 426 -392c0 -134 -75 -269 -228 -269h-63zM508 40c60 0 117 36 144 69v268c-42 24 -86 33 -128 33c-111 0 -193 -83 -193 -187c0 -114 71 -183 177 -183z" />
    <glyph glyph-name="A" unicode="A" horiz-adv-x="697" 
d="M21 0l305 706h45l305 -706h-59l-102 238h-336l-102 -238h-56zM347 630l-146 -340h291z" />
    <glyph glyph-name="B" unicode="B" horiz-adv-x="617" 
d="M111 1v698c39 1 123 4 184 4c167 0 221 -76 221 -173c0 -93 -63 -147 -136 -164v-2c101 -12 163 -70 163 -168c0 -140 -107 -199 -249 -199c-60 0 -142 2 -183 4zM299 333h-133v-280c28 -1 86 -4 130 -4c120 0 192 49 192 150c0 86 -68 134 -189 134zM293 651
c-43 0 -99 -2 -127 -3v-266h136c87 0 159 51 159 137c0 85 -53 132 -168 132z" />
    <glyph glyph-name="C" unicode="C" horiz-adv-x="656" 
d="M600 109l22 -41c-48 -48 -134 -77 -217 -77c-208 0 -351 141 -351 359c0 201 132 359 343 359c88 0 159 -22 212 -66l-26 -41c-50 38 -109 55 -185 55c-170 0 -286 -130 -286 -307c0 -184 122 -307 297 -307c75 0 142 26 191 66z" />
    <glyph glyph-name="D" unicode="D" horiz-adv-x="737" 
d="M111 0v700h11c50 0 107 3 168 3c280 0 393 -161 393 -343c0 -200 -134 -362 -401 -362c-51 0 -106 2 -162 2h-9zM288 651c-52 0 -80 -2 -122 -3v-596c57 -1 111 -2 118 -2c225 0 341 135 341 310c0 162 -104 291 -337 291z" />
    <glyph glyph-name="E" unicode="E" horiz-adv-x="575" 
d="M111 0v700h387v-52h-332v-267h302v-52h-302v-277h342v-52h-397z" />
    <glyph glyph-name="F" unicode="F" horiz-adv-x="542" 
d="M111 0v700h391v-52h-336v-288h306v-52h-306v-308h-55z" />
    <glyph glyph-name="G" unicode="G" horiz-adv-x="727" 
d="M406 287v52h257v-252c-62 -62 -175 -96 -262 -96c-209 0 -347 141 -347 359c0 201 135 359 340 359c91 0 159 -21 216 -66l-25 -43c-46 39 -112 57 -185 57c-172 0 -288 -128 -288 -307c0 -186 118 -307 291 -307c76 0 163 29 208 73v171h-205z" />
    <glyph glyph-name="H" unicode="H" horiz-adv-x="769" 
d="M603 0v331h-437v-331h-55v700h55v-317h437v317h55v-700h-55z" />
    <glyph glyph-name="I" unicode="I" horiz-adv-x="325" 
d="M135 0v700h55v-700h-55z" />
    <glyph glyph-name="J" unicode="J" horiz-adv-x="361" 
d="M250 700v-546c0 -99 -36 -163 -140 -163c-42 0 -78 16 -96 32l20 43c16 -12 43 -23 69 -23c75 0 92 52 92 119v538h55z" />
    <glyph glyph-name="K" unicode="K" horiz-adv-x="637" 
d="M595 700l-331 -331l345 -369h-71l-339 365l329 335h67zM111 0v700h55v-700h-55z" />
    <glyph glyph-name="L" unicode="L" horiz-adv-x="552" 
d="M111 0v700h55v-648h369v-52h-424z" />
    <glyph glyph-name="M" unicode="M" horiz-adv-x="884" 
d="M111 0v700h56l282 -384l271 384h53v-700h-55v614l-269 -378h-9l-274 375v-611h-55z" />
    <glyph glyph-name="N" unicode="N" horiz-adv-x="797" 
d="M686 0h-44l-479 602v-602h-52v700h44l479 -604v604h52v-700z" />
    <glyph glyph-name="O" unicode="O" horiz-adv-x="810" 
d="M54 350c0 203 149 359 351 359c199 0 351 -150 351 -359c0 -206 -152 -359 -351 -359s-351 150 -351 359zM112 350c0 -175 128 -307 293 -307c171 0 293 133 293 307c0 177 -128 307 -293 307c-166 0 -293 -130 -293 -307z" />
    <glyph glyph-name="P" unicode="P" horiz-adv-x="585" 
d="M166 0h-55v700c39 0 131 2 171 2c194 0 249 -107 249 -211c0 -109 -75 -214 -249 -214c-33 0 -76 1 -116 4v-281zM287 650c-31 0 -88 -1 -121 -2v-314c39 -3 74 -5 114 -5c127 0 193 67 193 163c0 91 -54 158 -186 158z" />
    <glyph glyph-name="Q" unicode="Q" horiz-adv-x="810" 
d="M54 350c0 203 149 359 351 359c199 0 351 -150 351 -359c0 -109 -43 -203 -112 -267l70 -83h-66l-43 51c-56 -38 -125 -60 -200 -60c-199 0 -351 150 -351 359zM112 350c0 -175 128 -307 293 -307c63 0 119 18 165 49l-62 75l37 33l64 -76c56 56 89 135 89 226
c0 177 -128 307 -293 307c-166 0 -293 -130 -293 -307z" />
    <glyph glyph-name="R" unicode="R" horiz-adv-x="631" 
d="M166 0h-55v700c39 0 148 2 168 2c191 0 245 -95 245 -202c0 -100 -72 -175 -166 -195l245 -305h-68l-233 294h-136v-294zM276 650c-21 0 -77 -1 -110 -2v-302h121c89 0 179 61 179 154c0 85 -48 150 -190 150z" />
    <glyph glyph-name="S" unicode="S" horiz-adv-x="546" 
d="M434 174c0 198 -362 126 -362 360c0 98 75 175 205 175c78 0 149 -28 188 -71l-30 -41c-40 40 -92 60 -156 60c-92 0 -149 -49 -149 -123c0 -196 362 -116 362 -359c0 -112 -99 -184 -223 -184c-83 0 -180 38 -215 101l33 38c41 -56 118 -87 181 -87c86 0 166 45 166 131
z" />
    <glyph glyph-name="T" unicode="T" horiz-adv-x="593" 
d="M10 648v52h573v-52h-259v-648h-55v648h-259z" />
    <glyph glyph-name="U" unicode="U" horiz-adv-x="751" 
d="M650 700v-407c0 -214 -124 -301 -265 -301c-163 0 -284 103 -284 308v400h55v-390c0 -170 91 -266 229 -266c123 0 210 82 210 261v395h55z" />
    <glyph glyph-name="V" unicode="V" horiz-adv-x="656" 
d="M645 700l-294 -706h-39l-301 706h59l263 -622l256 622h56z" />
    <glyph glyph-name="W" unicode="W" horiz-adv-x="958" 
d="M944 700l-204 -700h-48l-210 608l-206 -608h-48l-214 700h62l181 -602l201 602h51l206 -603l175 603h54z" />
    <glyph glyph-name="X" unicode="X" horiz-adv-x="660" 
d="M623 700l-257 -344l266 -356h-66l-236 314l-237 -314h-65l267 356l-256 344h65l227 -302l226 302h66z" />
    <glyph glyph-name="Y" unicode="Y" horiz-adv-x="584" 
d="M570 700l-252 -394v-306h-55v306l-249 394h64l215 -342l216 342h61z" />
    <glyph glyph-name="Z" unicode="Z" horiz-adv-x="629" 
d="M60 648v52h519v-35l-463 -613h473v-52h-549v35l461 613h-441z" />
    <glyph glyph-name="bracketleft" unicode="[" horiz-adv-x="296" 
d="M60 -200v850h230v-49h-178v-752h178v-49h-230z" />
    <glyph glyph-name="backslash" unicode="\" horiz-adv-x="317" 
d="M11 709l336 -901l-42 -16l-335 902z" />
    <glyph glyph-name="bracketright" unicode="]" horiz-adv-x="296" 
d="M236 650v-850h-230v49h178v752h-178v49h230z" />
    <glyph glyph-name="asciicircum" unicode="^" horiz-adv-x="480" 
d="M48 450l176 258h34l174 -258h-57l-134 203l-136 -203h-57z" />
    <glyph glyph-name="underscore" unicode="_" horiz-adv-x="287" 
d="M0 -200v52h287v-52h-287z" />
    <glyph glyph-name="grave" unicode="`" horiz-adv-x="269" 
d="M176 542l-116 142l41 31l108 -150z" />
    <glyph glyph-name="a" unicode="a" horiz-adv-x="459" 
d="M93 375l-14 43c42 26 90 41 143 41c125 0 167 -66 167 -180v-279h-52v69c-28 -38 -72 -75 -154 -75c-83 0 -139 52 -139 134c0 90 74 140 171 140c36 0 86 -8 122 -34c0 107 -6 176 -118 176c-53 0 -86 -13 -126 -35zM199 43c76 0 113 38 138 71v75
c-33 24 -71 36 -117 36c-59 0 -121 -28 -121 -94c0 -56 44 -88 100 -88z" />
    <glyph glyph-name="b" unicode="b" horiz-adv-x="550" 
d="M79 44v656h52v-305c35 36 97 64 157 64c134 0 214 -94 214 -227c0 -148 -99 -241 -245 -241c-70 0 -134 19 -178 53zM277 410c-63 0 -121 -37 -146 -69v-262c44 -31 84 -39 129 -39c105 0 187 71 187 187c0 113 -66 183 -170 183z" />
    <glyph glyph-name="c" unicode="c" horiz-adv-x="490" 
d="M429 102l26 -38c-38 -48 -104 -73 -170 -73c-139 0 -238 92 -238 234c0 131 96 234 224 234c70 0 132 -15 175 -56l-25 -42c-40 36 -90 49 -142 49c-95 0 -177 -78 -177 -185c0 -114 82 -185 187 -185c58 0 109 26 140 62z" />
    <glyph glyph-name="d" unicode="d" horiz-adv-x="553" 
d="M422 0v64c-35 -40 -90 -72 -155 -72c-133 0 -220 91 -220 231c0 139 105 236 245 236c52 0 93 -12 130 -39v280h52v-700h-52zM277 41c60 0 116 37 145 71v257c-46 31 -87 41 -129 41c-105 0 -191 -74 -191 -185c0 -115 72 -184 175 -184z" />
    <glyph glyph-name="e" unicode="e" horiz-adv-x="524" 
d="M435 95l17 -40c-41 -43 -106 -64 -166 -64c-142 0 -239 92 -239 234c0 131 80 234 228 234c116 0 204 -80 204 -203c0 -17 -1 -30 -3 -42h-371c4 -108 76 -174 184 -174c61 0 115 23 146 55zM270 410c-100 0 -159 -65 -168 -153h324c-2 95 -62 153 -156 153z" />
    <glyph glyph-name="f" unicode="f" horiz-adv-x="335" 
d="M93 0v523c0 125 55 186 155 186c54 0 94 -18 117 -38l-20 -40c-21 17 -49 29 -89 29c-71 0 -111 -44 -111 -146v-64h172v-49h-172v-401h-52z" />
    <glyph glyph-name="g" unicode="g" horiz-adv-x="490" 
d="M14 -66c0 71 54 117 138 135c-10 12 -15 28 -15 43c0 17 6 33 17 45c-59 25 -94 79 -94 143c0 90 70 159 178 159c45 0 83 -13 113 -34h1l128 34v-49l-91 -23c17 -25 27 -55 27 -87c0 -90 -71 -159 -178 -159c-16 0 -31 1 -45 4c-7 -10 -9 -21 -9 -33c0 -14 4 -26 13 -36
c14 1 27 2 42 2c131 0 225 -49 225 -144c0 -93 -94 -142 -225 -142s-225 47 -225 142zM67 -66c0 -59 68 -95 172 -95c105 0 172 36 172 95s-67 97 -172 97c-104 0 -172 -37 -172 -97zM113 300c0 -63 51 -112 125 -112c75 0 125 49 125 112s-53 112 -125 112
c-73 0 -125 -49 -125 -112z" />
    <glyph glyph-name="h" unicode="h" horiz-adv-x="551" 
d="M79 0v700h52v-311c35 39 100 69 162 69c122 0 188 -61 188 -202v-256h-52v248c0 108 -48 161 -148 161c-61 0 -121 -33 -150 -69v-340h-52z" />
    <glyph glyph-name="i" unicode="i" horiz-adv-x="261" 
d="M104 0v450h52v-450h-52zM95 625c0 20 17 33 37 33c17 0 34 -13 34 -33c0 -23 -17 -37 -34 -37c-20 0 -37 14 -37 37z" />
    <glyph glyph-name="j" unicode="j" horiz-adv-x="260" 
d="M159 450v-483c0 -110 -41 -175 -141 -175c-39 0 -73 13 -92 28l16 42c16 -11 40 -21 65 -21c72 0 100 48 100 130v479h52zM97 625c0 20 17 33 37 33c17 0 34 -13 34 -33c0 -23 -17 -37 -34 -37c-20 0 -37 14 -37 37z" />
    <glyph glyph-name="k" unicode="k" horiz-adv-x="473" 
d="M434 450l-210 -211l229 -239h-70l-223 235l206 215h68zM79 0v700h52v-700h-52z" />
    <glyph glyph-name="l" unicode="l" horiz-adv-x="282" 
d="M79 116v584h52v-556c0 -68 17 -101 65 -101c24 0 48 11 63 22l13 -41c-21 -16 -54 -30 -95 -30c-67 0 -98 40 -98 122z" />
    <glyph glyph-name="m" unicode="m" horiz-adv-x="805" 
d="M735 295v-295h-52v281c0 88 -39 128 -114 128c-63 0 -112 -32 -138 -75c2 -8 2 -22 2 -32v-302h-52v304c0 62 -40 105 -113 105c-62 0 -112 -35 -137 -71v-338h-52v450h52v-63c34 42 95 71 156 71c70 0 122 -31 138 -83c33 50 97 83 164 83c84 0 146 -40 146 -163z" />
    <glyph glyph-name="n" unicode="n" horiz-adv-x="551" 
d="M79 0v450h52v-63c34 39 98 71 162 71c122 0 188 -60 188 -201v-257h-52v247c0 110 -48 162 -148 162c-62 0 -120 -33 -150 -69v-340h-52z" />
    <glyph glyph-name="o" unicode="o" horiz-adv-x="567" 
d="M47 225c0 135 96 234 236 234s236 -99 236 -234s-96 -234 -236 -234s-236 99 -236 234zM102 225c0 -108 76 -185 181 -185c106 0 181 76 181 185c0 108 -75 185 -181 185c-104 0 -181 -76 -181 -185z" />
    <glyph glyph-name="p" unicode="p" horiz-adv-x="554" 
d="M79 -200v650h52v-60c34 40 100 69 165 69c130 0 210 -94 210 -227c0 -137 -91 -241 -231 -241c-55 0 -107 11 -144 38v-229h-52zM282 410c-63 0 -122 -33 -151 -70v-259c47 -31 92 -41 140 -41c109 0 180 79 180 189c0 107 -61 181 -169 181z" />
    <glyph glyph-name="q" unicode="q" horiz-adv-x="555" 
d="M423 -200v249c-36 -34 -93 -58 -147 -58c-139 0 -229 92 -229 234c0 131 106 234 249 234c68 0 134 -20 179 -49v-610h-52zM282 40c58 0 116 34 141 66v271c-42 24 -86 33 -128 33c-111 0 -193 -83 -193 -187c0 -110 71 -183 180 -183z" />
    <glyph glyph-name="r" unicode="r" horiz-adv-x="329" 
d="M79 0v450h52v-60c25 38 62 68 121 68c37 0 55 -6 70 -17l-18 -49c-22 13 -34 17 -63 17c-59 0 -89 -37 -110 -73v-336h-52z" />
    <glyph glyph-name="s" unicode="s" horiz-adv-x="418" 
d="M312 118c0 113 -249 57 -249 222c0 72 59 119 145 119c63 0 115 -23 141 -50l-22 -39c-28 26 -72 43 -118 43c-56 0 -91 -33 -91 -72c0 -119 249 -63 249 -221c0 -89 -76 -129 -162 -129c-63 0 -133 33 -154 65l29 34c25 -32 86 -53 131 -53c52 0 101 26 101 81z" />
    <glyph glyph-name="t" unicode="t" horiz-adv-x="348" 
d="M69 171v404h52v-125h181v-49h-181v-222c0 -88 29 -136 101 -136c30 0 56 12 72 24l17 -41c-21 -17 -58 -32 -101 -32c-100 0 -141 62 -141 177z" />
    <glyph glyph-name="u" unicode="u" horiz-adv-x="544" 
d="M464 450v-450h-52v71c-34 -42 -99 -80 -171 -80c-109 0 -172 62 -172 198v261h52v-250c0 -105 42 -160 139 -160c63 0 123 40 152 78v332h52z" />
    <glyph glyph-name="v" unicode="v" horiz-adv-x="472" 
d="M461 450l-203 -456h-36l-211 456h61l129 -283c14 -31 29 -66 41 -99c12 33 26 70 40 102l124 280h55z" />
    <glyph glyph-name="w" unicode="w" horiz-adv-x="694" 
d="M680 450l-146 -456h-43l-124 327c-7 19 -14 38 -20 57c-6 -21 -12 -40 -20 -60l-121 -324h-41l-151 456h56l102 -315c7 -23 12 -44 19 -66c7 22 13 42 22 66l115 315h43l117 -314c8 -22 15 -45 23 -68c6 25 14 48 21 73l95 309h53z" />
    <glyph glyph-name="x" unicode="x" horiz-adv-x="495" 
d="M454 450l-169 -218l179 -232h-64l-154 199l-154 -199h-61l179 230l-169 220h64l143 -186l145 186h61z" />
    <glyph glyph-name="y" unicode="y" horiz-adv-x="481" 
d="M467 450l-182 -450c-66 -161 -108 -200 -169 -200c-29 0 -53 9 -77 23l17 40c17 -8 35 -15 53 -15c46 0 79 37 117 128l10 24l-222 450h62l154 -318l32 -70c7 23 16 47 25 72l121 316h59z" />
    <glyph glyph-name="z" unicode="z" horiz-adv-x="481" 
d="M62 401v49h372v-34l-312 -367h307v-49h-382v34l311 367h-296z" />
    <glyph glyph-name="braceleft" unicode="{" horiz-adv-x="313" 
d="M110 -73v177c0 79 -50 99 -90 98v46c36 0 90 21 90 110v161c0 83 30 131 122 131h61v-49h-49c-60 0 -82 -29 -82 -98v-163c0 -65 -30 -108 -75 -114c42 -5 75 -37 75 -114v-166c0 -69 30 -97 88 -97h43v-49h-61c-79 0 -122 37 -122 127z" />
    <glyph glyph-name="bar" unicode="|" horiz-adv-x="322" 
d="M135 0v700h52v-700h-52z" />
    <glyph glyph-name="braceright" unicode="}" horiz-adv-x="313" 
d="M203 104v-177c0 -90 -43 -127 -122 -127h-61v49h43c58 0 88 28 88 97v166c0 77 33 109 75 114c-45 6 -75 49 -75 114v163c0 69 -22 98 -82 98h-49v49h61c92 0 122 -48 122 -131v-161c0 -89 54 -110 90 -110v-46c-40 1 -90 -19 -90 -98z" />
    <glyph glyph-name="asciitilde" unicode="~" horiz-adv-x="589" 
d="M82 322l-25 34c42 42 87 64 128 64c82 0 153 -73 231 -73c31 0 63 16 93 46l22 -36c-38 -36 -78 -56 -116 -56c-80 0 -153 73 -228 73c-37 0 -73 -20 -105 -52z" />
    <glyph glyph-name="uni00A0" unicode="&#xa0;" horiz-adv-x="235" 
 />
    <glyph glyph-name="exclamdown" unicode="&#xa1;" horiz-adv-x="310" 
d="M184 264v-507h-55v507h55zM195 419c0 -18 -16 -36 -40 -36c-21 0 -37 18 -37 36c0 21 16 40 37 40c24 0 40 -19 40 -40z" />
    <glyph glyph-name="cent" unicode="&#xa2;" horiz-adv-x="589" 
d="M473 102l26 -38c-35 -44 -92 -68 -152 -72v-112h-52v113c-121 14 -204 102 -204 232c0 124 86 223 204 233v109h52v-109c57 -4 106 -21 143 -55l-25 -42c-40 36 -90 49 -142 49c-95 0 -177 -78 -177 -185c0 -114 82 -185 187 -185c58 0 109 26 140 62z" />
    <glyph glyph-name="sterling" unicode="&#xa3;" horiz-adv-x="589" 
d="M81 283v43h79c-21 56 -56 99 -56 188c0 101 78 194 208 194c79 0 147 -29 187 -73l-30 -40c-42 41 -96 61 -157 61c-92 0 -150 -70 -150 -145c0 -86 37 -123 57 -185h172v-43h-163c2 -11 3 -23 3 -35c0 -67 -25 -113 -52 -148h7c79 0 152 -52 227 -52c37 0 71 11 110 48
l25 -40c-42 -42 -90 -60 -137 -60c-77 0 -151 52 -228 52c-39 0 -78 -18 -115 -55l-24 41c26 26 52 43 78 54c31 39 54 87 54 152c0 16 -2 30 -4 43h-91z" />
    <glyph glyph-name="currency" unicode="&#xa4;" horiz-adv-x="589" 
d="M71 347c0 53 17 103 47 143l-89 91l32 33l90 -90c37 31 85 50 144 50c58 0 107 -19 144 -50l95 94l32 -32l-95 -96c31 -40 48 -90 48 -143s-17 -104 -48 -144l92 -91l-33 -32l-90 90c-37 -31 -86 -50 -145 -50s-107 19 -144 50l-96 -95l-32 32l95 97
c-30 40 -47 90 -47 143zM120 347c0 -96 66 -181 175 -181c111 0 175 85 175 181c0 98 -66 181 -175 181s-175 -83 -175 -181z" />
    <glyph glyph-name="yen" unicode="&#xa5;" horiz-adv-x="589" 
d="M71 305v43h169l-215 352h64l206 -342l207 342h61l-216 -352h170v-43h-196v-123h196v-43h-196v-139h-55v139h-195v43h195v123h-195z" />
    <glyph glyph-name="brokenbar" unicode="&#xa6;" horiz-adv-x="322" 
d="M187 440h-52v260h52v-260zM135 260h52v-260h-52v260z" />
    <glyph glyph-name="section" unicode="&#xa7;" horiz-adv-x="524" 
d="M71 249c0 88 56 158 143 177c-48 23 -93 68 -93 135c0 79 59 139 153 139c71 0 108 -34 129 -61l-31 -36c-19 21 -42 48 -98 48s-101 -44 -101 -99c0 -62 52 -100 104 -122c106 -6 176 -82 176 -181c0 -88 -56 -158 -144 -176c48 -24 92 -69 92 -134
c0 -79 -59 -139 -153 -139c-71 0 -108 33 -129 61l31 36c19 -21 42 -48 98 -48s101 44 101 99c0 62 -52 99 -105 120c-104 8 -173 83 -173 181zM123 249c0 -76 63 -135 139 -135c79 0 139 58 139 135s-62 136 -139 136s-139 -58 -139 -136z" />
    <glyph glyph-name="dieresis" unicode="&#xa8;" horiz-adv-x="393" 
d="M60 618c0 20 15 33 34 33c15 0 31 -13 31 -33c0 -21 -16 -35 -31 -35c-19 0 -34 14 -34 35zM268 618c0 20 15 33 34 33c15 0 31 -13 31 -33c0 -21 -16 -35 -31 -35c-19 0 -34 14 -34 35z" />
    <glyph glyph-name="copyright" unicode="&#xa9;" horiz-adv-x="1018" 
d="M77 221c0 240 185 432 432 432s432 -192 432 -432s-185 -432 -432 -432s-432 192 -432 432zM123 221c0 -213 164 -386 386 -386s386 173 386 386s-164 386 -386 386s-386 -173 -386 -386zM661 102l26 -38c-38 -48 -104 -73 -170 -73c-139 0 -238 92 -238 234
c0 131 96 234 224 234c70 0 132 -15 175 -56l-25 -42c-40 36 -90 49 -142 49c-95 0 -177 -78 -177 -185c0 -114 82 -185 187 -185c58 0 109 26 140 62z" />
    <glyph glyph-name="ordfeminine" unicode="&#xaa;" horiz-adv-x="409" 
d="M108 590l-21 31c28 21 69 37 117 37c78 0 131 -42 131 -123v-196h-46v52c-22 -28 -57 -55 -124 -55c-68 0 -111 45 -111 98c0 65 48 102 124 102c46 0 81 -9 111 -27v15c0 64 -34 94 -93 94c-36 0 -61 -9 -88 -28zM185 375c48 0 82 23 104 45v58c-25 14 -66 24 -97 24
c-48 0 -89 -23 -89 -64c0 -37 35 -63 82 -63z" />
    <glyph glyph-name="guillemotleft" unicode="&#xab;" horiz-adv-x="506" 
d="M405 37l-180 211v4l182 209l34 -30l-156 -181l154 -181zM231 37l-180 211v4l182 209l34 -30l-156 -181l154 -181z" />
    <glyph glyph-name="logicalnot" unicode="&#xac;" horiz-adv-x="589" 
d="M65 337v46h458v-177h-46v131h-412z" />
    <glyph glyph-name="uni00AD" unicode="&#xad;" horiz-adv-x="399" 
d="M85 247v49h229v-49h-229z" />
    <glyph glyph-name="registered" unicode="&#xae;" horiz-adv-x="582" 
d="M54 497c0 130 105 236 238 236c130 0 236 -106 236 -236c0 -133 -106 -238 -236 -238c-133 0 -238 105 -238 238zM97 496c0 -107 87 -194 194 -194s194 87 194 194s-87 194 -194 194s-194 -87 -194 -194zM240 360h-37v280h83c78 0 103 -38 103 -83c0 -37 -26 -70 -66 -79
l87 -118h-45l-80 111h-45v-111zM282 612h-42v-113h47c33 0 65 23 65 58c0 34 -24 55 -70 55z" />
    <glyph glyph-name="macron" unicode="&#xaf;" horiz-adv-x="372" 
d="M60 604v43h252v-43h-252z" />
    <glyph glyph-name="degree" unicode="&#xb0;" horiz-adv-x="398" 
d="M54 569c0 82 65 146 144 146c81 0 146 -62 146 -144c0 -81 -65 -146 -146 -146c-79 0 -144 63 -144 144zM100 570c0 -54 45 -99 99 -99s99 45 99 99s-45 99 -99 99s-99 -45 -99 -99z" />
    <glyph glyph-name="plusminus" unicode="&#xb1;" horiz-adv-x="589" 
d="M71 416v46h198v199h49v-199h199v-46h-199v-139h-49v139h-198zM71 173v46h446v-46h-446z" />
    <glyph glyph-name="twosuperior" unicode="&#xb2;" horiz-adv-x="339" 
d="M39 350v34c69 49 200 132 200 212c0 37 -25 68 -74 68c-36 0 -76 -22 -82 -63l-40 13c10 58 65 90 125 90c82 0 120 -47 120 -104c0 -98 -145 -185 -187 -210h206v-40h-268z" />
    <glyph glyph-name="threesuperior" unicode="&#xb3;" horiz-adv-x="342" 
d="M164 345c-55 0 -109 19 -133 67l28 24c18 -35 60 -52 100 -52c56 0 90 29 90 67c0 35 -33 60 -82 60h-36v34h32c38 0 71 27 71 64s-30 57 -76 57c-49 0 -78 -22 -92 -48l-24 25c18 36 61 62 125 62c71 0 116 -33 116 -88c0 -38 -26 -72 -71 -85v-1c55 -5 86 -43 86 -84
c0 -63 -60 -102 -134 -102z" />
    <glyph glyph-name="acute" unicode="&#xb4;" horiz-adv-x="268" 
d="M208 685l-116 -143l-32 23l108 151z" />
    <glyph glyph-name="mu" unicode="&#xb5;" horiz-adv-x="547" 
d="M467 450v-450h-52v71c-34 -42 -99 -80 -171 -80c-51 0 -91 13 -120 41v-232h-52v650h52v-250c0 -105 42 -160 139 -160c63 0 123 40 152 78v332h52z" />
    <glyph glyph-name="mu" unicode="&#x3bc;" horiz-adv-x="547" 
d="M467 450v-450h-52v71c-34 -42 -99 -80 -171 -80c-51 0 -91 13 -120 41v-232h-52v650h52v-250c0 -105 42 -160 139 -160c63 0 123 40 152 78v332h52z" />
    <glyph glyph-name="paragraph" unicode="&#xb6;" horiz-adv-x="437" 
d="M51 481c0 136 81 219 208 219h144v-49h-94v-680c0 -111 -39 -179 -147 -179c-41 0 -80 16 -101 35l22 38c16 -12 45 -24 75 -24c83 0 99 59 99 131v291c-114 1 -206 81 -206 218z" />
    <glyph glyph-name="periodcentered" unicode="&#xb7;" horiz-adv-x="235" 
d="M79 297c0 18 16 36 40 36c21 0 36 -18 36 -36c0 -21 -15 -40 -36 -40c-24 0 -40 19 -40 40z" />
    <glyph glyph-name="cedilla" unicode="&#xb8;" horiz-adv-x="330" 
d="M60 -174l16 27c23 -14 50 -22 72 -22c40 0 70 17 70 46s-19 47 -71 47h-6v76h30v-50c68 -2 99 -31 99 -76s-42 -77 -115 -77c-42 0 -70 14 -95 29z" />
    <glyph glyph-name="onesuperior" unicode="&#xb9;" horiz-adv-x="239" 
d="M27 635l99 67h32v-352h-46v297l-66 -44z" />
    <glyph glyph-name="ordmasculine" unicode="&#xba;" horiz-adv-x="458" 
d="M57 496c0 96 74 162 172 162s172 -66 172 -162s-74 -163 -172 -163s-172 67 -172 163zM106 496c0 -73 59 -120 123 -120c66 0 123 47 123 120c0 72 -58 119 -123 119s-123 -47 -123 -119z" />
    <glyph glyph-name="guillemotright" unicode="&#xbb;" horiz-adv-x="506" 
d="M455 248l-180 -211l-35 32l155 181l-156 181l34 30l182 -209v-4zM281 248l-180 -211l-35 32l155 181l-156 181l34 30l182 -209v-4z" />
    <glyph glyph-name="onequarter" unicode="&#xbc;" horiz-adv-x="657" 
d="M41 635l99 67h32v-352h-46v297l-66 -44zM54 13l521 696l31 -22l-521 -696zM532 0v87h-195v29l179 234h45l-175 -226h146v101h43v-101h62v-37h-62v-87h-43z" />
    <glyph glyph-name="onehalf" unicode="&#xbd;" horiz-adv-x="673" 
d="M41 635l99 67h32v-352h-46v297l-66 -44zM26 13l521 696l31 -22l-521 -696zM365 0v34c69 49 200 132 200 212c0 37 -25 68 -74 68c-36 0 -76 -22 -82 -63l-40 13c10 58 65 90 125 90c82 0 120 -47 120 -104c0 -98 -145 -185 -187 -210h206v-40h-268z" />
    <glyph glyph-name="threequarters" unicode="&#xbe;" horiz-adv-x="699" 
d="M106 13l521 696l31 -22l-521 -696zM574 0v87h-195v29l179 234h45l-175 -226h146v101h43v-101h62v-37h-62v-87h-43zM167 345c-55 0 -109 19 -133 67l28 24c18 -35 60 -52 100 -52c56 0 90 29 90 67c0 35 -33 60 -82 60h-36v34h32c38 0 71 27 71 64s-30 57 -76 57
c-49 0 -78 -22 -92 -48l-24 25c18 36 61 62 125 62c71 0 116 -33 116 -88c0 -38 -26 -72 -71 -85v-1c55 -5 86 -43 86 -84c0 -63 -60 -102 -134 -102z" />
    <glyph glyph-name="questiondown" unicode="&#xbf;" horiz-adv-x="460" 
d="M89 -71c0 -73 60 -129 145 -129c63 0 116 29 154 81l32 -33c-36 -58 -108 -100 -190 -100c-125 0 -196 78 -196 170c0 186 203 178 203 314c0 10 -2 21 -4 33l47 2c3 -16 5 -30 5 -43c0 -148 -196 -142 -196 -295zM297 419c0 -18 -15 -36 -39 -36c-21 0 -37 18 -37 36
c0 21 16 40 37 40c24 0 39 -19 39 -40z" />
    <glyph glyph-name="Agrave" unicode="&#xc0;" horiz-adv-x="697" 
d="M21 0l305 706h45l305 -706h-59l-102 238h-336l-102 -238h-56zM347 630l-146 -340h291zM383 738l-183 86l20 44l178 -99z" />
    <glyph glyph-name="Aacute" unicode="&#xc1;" horiz-adv-x="697" 
d="M21 0l305 706h45l305 -706h-59l-102 238h-336l-102 -238h-56zM347 630l-146 -340h291zM499 824l-182 -86l-16 31l179 99z" />
    <glyph glyph-name="Acircumflex" unicode="&#xc2;" horiz-adv-x="697" 
d="M21 0l305 706h45l305 -706h-59l-102 238h-336l-102 -238h-56zM347 630l-146 -340h291zM177 767l168 98h4l170 -98l-23 -30l-149 81l-150 -81z" />
    <glyph glyph-name="Atilde" unicode="&#xc3;" horiz-adv-x="697" 
d="M21 0l305 706h45l305 -706h-59l-102 238h-336l-102 -238h-56zM347 630l-146 -340h291zM198 767l-18 33c28 27 60 40 90 40c60 0 102 -44 156 -44c23 0 49 6 74 33l16 -33c-28 -33 -59 -46 -93 -46c-55 0 -102 44 -159 44c-21 0 -43 -8 -66 -27z" />
    <glyph glyph-name="Adieresis" unicode="&#xc4;" horiz-adv-x="697" 
d="M21 0l305 706h45l305 -706h-59l-102 238h-336l-102 -238h-56zM347 630l-146 -340h291zM195 804c0 20 17 32 38 32c18 0 36 -12 36 -32c0 -22 -18 -34 -36 -34c-21 0 -38 12 -38 34zM428 804c0 20 18 32 39 32c18 0 35 -12 35 -32c0 -22 -17 -34 -35 -34
c-21 0 -39 12 -39 34z" />
    <glyph glyph-name="Aring" unicode="&#xc5;" horiz-adv-x="697" 
d="M236 785c0 61 50 88 111 88c63 0 113 -27 113 -88c0 -51 -36 -81 -85 -89l301 -696h-59l-102 238h-336l-102 -238h-56l300 696c-49 7 -85 37 -85 89zM347 630l-146 -340h291zM276 785c0 -40 31 -60 72 -60c40 0 72 20 72 60s-32 57 -72 57c-41 0 -72 -17 -72 -57z" />
    <glyph glyph-name="AE" unicode="&#xc6;" horiz-adv-x="960" 
d="M883 700v-52h-332v-267h302v-52h-302v-277h342v-52h-397v244h-264l-172 -244h-65l501 700h387zM496 617l-227 -321h227v321z" />
    <glyph glyph-name="Ccedilla" unicode="&#xc7;" horiz-adv-x="656" 
d="M293 -173l17 28c23 -13 52 -24 74 -24c40 0 70 17 70 46s-19 47 -71 47h-6v68c-193 12 -323 150 -323 358c0 201 132 359 343 359c88 0 159 -22 212 -66l-26 -41c-50 38 -109 55 -185 55c-170 0 -286 -130 -286 -307c0 -184 122 -307 297 -307c75 0 142 26 191 66l22 -41
c-48 -48 -133 -76 -215 -77v-41c72 -2 102 -31 102 -76s-43 -77 -114 -77c-46 0 -77 15 -102 30z" />
    <glyph glyph-name="Egrave" unicode="&#xc8;" horiz-adv-x="575" 
d="M111 0v700h387v-52h-332v-267h302v-52h-302v-277h342v-52h-397zM358 738l-183 86l20 44l178 -99z" />
    <glyph glyph-name="Eacute" unicode="&#xc9;" horiz-adv-x="575" 
d="M111 0v700h387v-52h-332v-267h302v-52h-302v-277h342v-52h-397zM435 824l-182 -86l-16 31l179 99z" />
    <glyph glyph-name="Ecircumflex" unicode="&#xca;" horiz-adv-x="575" 
d="M111 0v700h387v-52h-332v-267h302v-52h-302v-277h342v-52h-397zM135 767l168 98h4l170 -98l-23 -30l-149 81l-150 -81z" />
    <glyph glyph-name="Edieresis" unicode="&#xcb;" horiz-adv-x="575" 
d="M111 0v700h387v-52h-332v-267h302v-52h-302v-277h342v-52h-397zM154 804c0 20 17 32 38 32c18 0 36 -12 36 -32c0 -22 -18 -34 -36 -34c-21 0 -38 12 -38 34zM387 804c0 20 18 32 39 32c18 0 35 -12 35 -32c0 -22 -17 -34 -35 -34c-21 0 -39 12 -39 34z" />
    <glyph glyph-name="Igrave" unicode="&#xcc;" horiz-adv-x="325" 
d="M135 0v700h55v-700h-55zM186 738l-183 86l20 44l178 -99z" />
    <glyph glyph-name="Iacute" unicode="&#xcd;" horiz-adv-x="325" 
d="M135 0v700h55v-700h-55zM322 824l-182 -86l-16 31l179 99z" />
    <glyph glyph-name="Icircumflex" unicode="&#xce;" horiz-adv-x="325" 
d="M135 0v700h55v-700h-55zM-8 767l168 98h4l170 -98l-23 -30l-149 81l-150 -81z" />
    <glyph glyph-name="Idieresis" unicode="&#xcf;" horiz-adv-x="325" 
d="M135 0v700h55v-700h-55zM9 804c0 20 17 32 38 32c18 0 36 -12 36 -32c0 -22 -18 -34 -36 -34c-21 0 -38 12 -38 34zM242 804c0 20 18 32 39 32c18 0 35 -12 35 -32c0 -22 -17 -34 -35 -34c-21 0 -39 12 -39 34z" />
    <glyph glyph-name="Eth" unicode="&#xd0;" horiz-adv-x="758" 
d="M10 332v49h122v319h11c50 0 107 3 168 3c280 0 393 -161 393 -343c0 -200 -134 -362 -401 -362c-51 0 -106 2 -162 2h-9v332h-122zM309 651c-52 0 -80 -2 -122 -3v-267h198v-49h-198v-280c57 -1 111 -2 118 -2c225 0 341 135 341 310c0 162 -104 291 -337 291z" />
    <glyph glyph-name="Ntilde" unicode="&#xd1;" horiz-adv-x="797" 
d="M686 0h-44l-479 602v-602h-52v700h44l479 -604v604h52v-700zM254 767l-18 33c28 27 60 40 90 40c60 0 102 -44 156 -44c23 0 49 6 74 33l16 -33c-28 -33 -59 -46 -93 -46c-55 0 -102 44 -159 44c-21 0 -43 -8 -66 -27z" />
    <glyph glyph-name="Ograve" unicode="&#xd2;" horiz-adv-x="810" 
d="M54 350c0 203 149 359 351 359c199 0 351 -150 351 -359c0 -206 -152 -359 -351 -359s-351 150 -351 359zM112 350c0 -175 128 -307 293 -307c171 0 293 133 293 307c0 177 -128 307 -293 307c-166 0 -293 -130 -293 -307zM478 738l-183 86l20 44l178 -99z" />
    <glyph glyph-name="Oacute" unicode="&#xd3;" horiz-adv-x="810" 
d="M54 350c0 203 149 359 351 359c199 0 351 -150 351 -359c0 -206 -152 -359 -351 -359s-351 150 -351 359zM112 350c0 -175 128 -307 293 -307c171 0 293 133 293 307c0 177 -128 307 -293 307c-166 0 -293 -130 -293 -307zM541 824l-182 -86l-16 31l179 99z" />
    <glyph glyph-name="Ocircumflex" unicode="&#xd4;" horiz-adv-x="810" 
d="M54 350c0 203 149 359 351 359c199 0 351 -150 351 -359c0 -206 -152 -359 -351 -359s-351 150 -351 359zM112 350c0 -175 128 -307 293 -307c171 0 293 133 293 307c0 177 -128 307 -293 307c-166 0 -293 -130 -293 -307zM238 767l168 98h4l170 -98l-23 -30l-149 81
l-150 -81z" />
    <glyph glyph-name="Otilde" unicode="&#xd5;" horiz-adv-x="810" 
d="M54 350c0 203 149 359 351 359c199 0 351 -150 351 -359c0 -206 -152 -359 -351 -359s-351 150 -351 359zM112 350c0 -175 128 -307 293 -307c171 0 293 133 293 307c0 177 -128 307 -293 307c-166 0 -293 -130 -293 -307zM256 767l-18 33c28 27 60 40 90 40
c60 0 102 -44 156 -44c23 0 49 6 74 33l16 -33c-28 -33 -59 -46 -93 -46c-55 0 -102 44 -159 44c-21 0 -43 -8 -66 -27z" />
    <glyph glyph-name="Odieresis" unicode="&#xd6;" horiz-adv-x="810" 
d="M54 350c0 203 149 359 351 359c199 0 351 -150 351 -359c0 -206 -152 -359 -351 -359s-351 150 -351 359zM112 350c0 -175 128 -307 293 -307c171 0 293 133 293 307c0 177 -128 307 -293 307c-166 0 -293 -130 -293 -307zM252 804c0 20 17 32 38 32c18 0 36 -12 36 -32
c0 -22 -18 -34 -36 -34c-21 0 -38 12 -38 34zM485 804c0 20 18 32 39 32c18 0 35 -12 35 -32c0 -22 -17 -34 -35 -34c-21 0 -39 12 -39 34z" />
    <glyph glyph-name="multiply" unicode="&#xd7;" horiz-adv-x="589" 
d="M121 501l33 33l140 -142l141 142l32 -33l-140 -141l142 -142l-32 -32l-143 141l-142 -141l-32 32l142 142z" />
    <glyph glyph-name="Oslash" unicode="&#xd8;" horiz-adv-x="810" 
d="M54 350c0 203 149 359 351 359c93 0 176 -33 238 -90l48 46l30 -30l-48 -47c52 -62 83 -144 83 -238c0 -206 -152 -359 -351 -359c-97 0 -182 35 -245 95l-47 -46l-31 32l49 47c-49 61 -77 140 -77 231zM698 350c0 77 -25 145 -66 198l-431 -422c52 -52 124 -83 204 -83
c171 0 293 133 293 307zM112 350c0 -73 22 -139 60 -190l431 420c-51 48 -121 77 -198 77c-166 0 -293 -130 -293 -307z" />
    <glyph glyph-name="Ugrave" unicode="&#xd9;" horiz-adv-x="751" 
d="M650 700v-407c0 -214 -124 -301 -265 -301c-163 0 -284 103 -284 308v400h55v-390c0 -170 91 -266 229 -266c123 0 210 82 210 261v395h55zM435 738l-183 86l20 44l178 -99z" />
    <glyph glyph-name="Uacute" unicode="&#xda;" horiz-adv-x="751" 
d="M650 700v-407c0 -214 -124 -301 -265 -301c-163 0 -284 103 -284 308v400h55v-390c0 -170 91 -266 229 -266c123 0 210 82 210 261v395h55zM508 824l-182 -86l-16 31l179 99z" />
    <glyph glyph-name="Ucircumflex" unicode="&#xdb;" horiz-adv-x="751" 
d="M650 700v-407c0 -214 -124 -301 -265 -301c-163 0 -284 103 -284 308v400h55v-390c0 -170 91 -266 229 -266c123 0 210 82 210 261v395h55zM204 767l168 98h4l170 -98l-23 -30l-149 81l-150 -81z" />
    <glyph glyph-name="Udieresis" unicode="&#xdc;" horiz-adv-x="751" 
d="M650 700v-407c0 -214 -124 -301 -265 -301c-163 0 -284 103 -284 308v400h55v-390c0 -170 91 -266 229 -266c123 0 210 82 210 261v395h55zM219 804c0 20 17 32 38 32c18 0 36 -12 36 -32c0 -22 -18 -34 -36 -34c-21 0 -38 12 -38 34zM452 804c0 20 18 32 39 32
c18 0 35 -12 35 -32c0 -22 -17 -34 -35 -34c-21 0 -39 12 -39 34z" />
    <glyph glyph-name="Yacute" unicode="&#xdd;" horiz-adv-x="584" 
d="M570 700l-252 -394v-306h-55v306l-249 394h64l215 -342l216 342h61zM430 824l-182 -86l-16 31l179 99z" />
    <glyph glyph-name="Thorn" unicode="&#xde;" horiz-adv-x="585" 
d="M166 0h-55v700h55v-107c32 0 91 2 116 2c194 0 249 -107 249 -211c0 -109 -75 -214 -249 -214c-33 0 -76 1 -116 4v-174zM283 543c-30 0 -90 -1 -117 -3v-313c39 -3 74 -5 114 -5c127 0 193 67 193 163c0 91 -56 158 -190 158z" />
    <glyph glyph-name="germandbls" unicode="&#xdf;" horiz-adv-x="542" 
d="M439 149c0 124 -199 128 -199 249c0 92 104 108 104 185c0 46 -44 77 -92 77c-78 0 -115 -47 -115 -156v-507h-52v517c0 134 62 195 173 195c80 0 141 -50 141 -117c0 -98 -104 -111 -104 -185c0 -112 199 -103 199 -259c0 -91 -65 -157 -150 -157c-69 0 -117 36 -141 70
l20 39c20 -26 57 -60 109 -60c55 0 107 41 107 109z" />
    <glyph glyph-name="agrave" unicode="&#xe0;" horiz-adv-x="459" 
d="M93 375l-14 43c42 26 90 41 143 41c125 0 167 -66 167 -180v-279h-52v69c-28 -38 -72 -75 -154 -75c-83 0 -139 52 -139 134c0 90 74 140 171 140c36 0 86 -8 122 -34c0 107 -6 176 -118 176c-53 0 -86 -13 -126 -35zM199 43c76 0 113 38 138 71v75
c-33 24 -71 36 -117 36c-59 0 -121 -28 -121 -94c0 -56 44 -88 100 -88zM254 542l-116 142l41 31l108 -150z" />
    <glyph glyph-name="aacute" unicode="&#xe1;" horiz-adv-x="459" 
d="M93 375l-14 43c42 26 90 41 143 41c125 0 167 -66 167 -180v-279h-52v69c-28 -38 -72 -75 -154 -75c-83 0 -139 52 -139 134c0 90 74 140 171 140c36 0 86 -8 122 -34c0 107 -6 176 -118 176c-53 0 -86 -13 -126 -35zM199 43c76 0 113 38 138 71v75
c-33 24 -71 36 -117 36c-59 0 -121 -28 -121 -94c0 -56 44 -88 100 -88zM324 685l-116 -143l-32 23l108 151z" />
    <glyph glyph-name="acircumflex" unicode="&#xe2;" horiz-adv-x="459" 
d="M93 375l-14 43c42 26 90 41 143 41c125 0 167 -66 167 -180v-279h-52v69c-28 -38 -72 -75 -154 -75c-83 0 -139 52 -139 134c0 90 74 140 171 140c36 0 86 -8 122 -34c0 107 -6 176 -118 176c-53 0 -86 -13 -126 -35zM199 43c76 0 113 38 138 71v75
c-33 24 -71 36 -117 36c-59 0 -121 -28 -121 -94c0 -56 44 -88 100 -88zM232 707l128 -131l-25 -32l-105 105l-107 -104l-26 31l131 131h4z" />
    <glyph glyph-name="atilde" unicode="&#xe3;" horiz-adv-x="459" 
d="M93 375l-14 43c42 26 90 41 143 41c125 0 167 -66 167 -180v-279h-52v69c-28 -38 -72 -75 -154 -75c-83 0 -139 52 -139 134c0 90 74 140 171 140c36 0 86 -8 122 -34c0 107 -6 176 -118 176c-53 0 -86 -13 -126 -35zM199 43c76 0 113 38 138 71v75
c-33 24 -71 36 -117 36c-59 0 -121 -28 -121 -94c0 -56 44 -88 100 -88zM98 573l-23 25c38 38 72 52 101 52c47 0 70 -46 111 -46c23 0 43 11 74 38l19 -27c-37 -38 -70 -54 -98 -54c-44 0 -67 46 -112 46c-20 0 -44 -12 -72 -34z" />
    <glyph glyph-name="adieresis" unicode="&#xe4;" horiz-adv-x="459" 
d="M93 375l-14 43c42 26 90 41 143 41c125 0 167 -66 167 -180v-279h-52v69c-28 -38 -72 -75 -154 -75c-83 0 -139 52 -139 134c0 90 74 140 171 140c36 0 86 -8 122 -34c0 107 -6 176 -118 176c-53 0 -86 -13 -126 -35zM199 43c76 0 113 38 138 71v75
c-33 24 -71 36 -117 36c-59 0 -121 -28 -121 -94c0 -56 44 -88 100 -88zM89 618c0 20 15 33 34 33c15 0 31 -13 31 -33c0 -21 -16 -35 -31 -35c-19 0 -34 14 -34 35zM297 618c0 20 15 33 34 33c15 0 31 -13 31 -33c0 -21 -16 -35 -31 -35c-19 0 -34 14 -34 35z" />
    <glyph glyph-name="aring" unicode="&#xe5;" horiz-adv-x="459" 
d="M93 375l-14 43c42 26 90 41 143 41c125 0 167 -66 167 -180v-279h-52v69c-28 -38 -72 -75 -154 -75c-83 0 -139 52 -139 134c0 90 74 140 171 140c36 0 86 -8 122 -34c0 107 -6 176 -118 176c-53 0 -86 -13 -126 -35zM199 43c76 0 113 38 138 71v75
c-33 24 -71 36 -117 36c-59 0 -121 -28 -121 -94c0 -56 44 -88 100 -88zM120 614c0 57 46 104 105 104c60 0 107 -47 107 -104s-47 -103 -107 -103c-59 0 -105 46 -105 103zM155 614c0 -40 31 -72 71 -72s71 32 71 72s-31 73 -71 73s-71 -33 -71 -73z" />
    <glyph glyph-name="ae" unicode="&#xe6;" horiz-adv-x="789" 
d="M222 459c77 0 122 -25 146 -71c38 44 96 71 172 71c116 0 204 -80 204 -203c0 -17 -1 -30 -3 -42h-352v-89c31 -54 88 -85 165 -85c61 0 115 23 146 55l17 -40c-41 -43 -106 -64 -166 -64c-81 0 -145 29 -188 80c-51 -53 -104 -77 -171 -77c-92 0 -148 52 -148 134
c0 90 74 140 171 140c36 0 97 -7 122 -13c6 101 -22 155 -118 155c-53 0 -86 -13 -126 -35l-14 43c42 26 90 41 143 41zM389 279v-22h302c-2 95 -62 153 -156 153c-69 0 -121 -32 -149 -83c2 -15 3 -31 3 -48zM199 43c76 0 113 38 138 71v98c-40 8 -71 13 -117 13
c-59 0 -121 -28 -121 -94c0 -56 44 -88 100 -88z" />
    <glyph glyph-name="ccedilla" unicode="&#xe7;" horiz-adv-x="490" 
d="M175 -174l16 27c23 -14 50 -22 72 -22c40 0 70 17 70 46s-19 47 -71 47h-6v69c-124 11 -209 100 -209 232c0 131 96 234 224 234c70 0 132 -15 175 -56l-25 -42c-40 36 -90 49 -142 49c-95 0 -177 -78 -177 -185c0 -114 82 -185 187 -185c58 0 109 26 140 62l26 -38
c-38 -48 -104 -73 -169 -73v-41c68 -2 99 -31 99 -76s-42 -77 -115 -77c-42 0 -70 14 -95 29z" />
    <glyph glyph-name="egrave" unicode="&#xe8;" horiz-adv-x="524" 
d="M435 95l17 -40c-41 -43 -106 -64 -166 -64c-142 0 -239 92 -239 234c0 131 80 234 228 234c116 0 204 -80 204 -203c0 -17 -1 -30 -3 -42h-371c4 -108 76 -174 184 -174c61 0 115 23 146 55zM270 410c-100 0 -159 -65 -168 -153h324c-2 95 -62 153 -156 153zM286 542
l-116 142l41 31l108 -150z" />
    <glyph glyph-name="eacute" unicode="&#xe9;" horiz-adv-x="524" 
d="M435 95l17 -40c-41 -43 -106 -64 -166 -64c-142 0 -239 92 -239 234c0 131 80 234 228 234c116 0 204 -80 204 -203c0 -17 -1 -30 -3 -42h-371c4 -108 76 -174 184 -174c61 0 115 23 146 55zM270 410c-100 0 -159 -65 -168 -153h324c-2 95 -62 153 -156 153zM384 685
l-116 -143l-32 23l108 151z" />
    <glyph glyph-name="ecircumflex" unicode="&#xea;" horiz-adv-x="524" 
d="M435 95l17 -40c-41 -43 -106 -64 -166 -64c-142 0 -239 92 -239 234c0 131 80 234 228 234c116 0 204 -80 204 -203c0 -17 -1 -30 -3 -42h-371c4 -108 76 -174 184 -174c61 0 115 23 146 55zM270 410c-100 0 -159 -65 -168 -153h324c-2 95 -62 153 -156 153zM275 707
l128 -131l-25 -32l-105 105l-107 -104l-26 31l131 131h4z" />
    <glyph glyph-name="edieresis" unicode="&#xeb;" horiz-adv-x="524" 
d="M435 95l17 -40c-41 -43 -106 -64 -166 -64c-142 0 -239 92 -239 234c0 131 80 234 228 234c116 0 204 -80 204 -203c0 -17 -1 -30 -3 -42h-371c4 -108 76 -174 184 -174c61 0 115 23 146 55zM270 410c-100 0 -159 -65 -168 -153h324c-2 95 -62 153 -156 153zM129 618
c0 20 15 33 34 33c15 0 31 -13 31 -33c0 -21 -16 -35 -31 -35c-19 0 -34 14 -34 35zM337 618c0 20 15 33 34 33c15 0 31 -13 31 -33c0 -21 -16 -35 -31 -35c-19 0 -34 14 -34 35z" />
    <glyph glyph-name="igrave" unicode="&#xec;" horiz-adv-x="261" 
d="M104 0v450h52v-450h-52zM130 542l-116 142l41 31l108 -150z" />
    <glyph glyph-name="iacute" unicode="&#xed;" horiz-adv-x="261" 
d="M104 0v450h52v-450h-52zM237 685l-116 -143l-32 23l108 151z" />
    <glyph glyph-name="icircumflex" unicode="&#xee;" horiz-adv-x="261" 
d="M104 0v450h52v-450h-52zM134 707l128 -131l-25 -32l-105 105l-107 -104l-26 31l131 131h4z" />
    <glyph glyph-name="idieresis" unicode="&#xef;" horiz-adv-x="261" 
d="M104 0v450h52v-450h-52zM-6 618c0 20 15 33 34 33c15 0 31 -13 31 -33c0 -21 -16 -35 -31 -35c-19 0 -34 14 -34 35zM202 618c0 20 15 33 34 33c15 0 31 -13 31 -33c0 -21 -16 -35 -31 -35c-19 0 -34 14 -34 35z" />
    <glyph glyph-name="eth" unicode="&#xf0;" horiz-adv-x="567" 
d="M203 528l-16 46l106 50c-36 31 -75 55 -114 73l58 12c36 -17 70 -39 100 -64l105 51l16 -46l-83 -40c92 -95 144 -226 144 -352c0 -166 -96 -267 -236 -267s-236 99 -236 234s96 234 236 234c74 0 136 -40 168 -105c-17 91 -62 172 -121 235zM102 225
c0 -108 76 -185 181 -185c108 0 184 85 181 222c-12 72 -78 148 -181 148c-104 0 -181 -76 -181 -185z" />
    <glyph glyph-name="ntilde" unicode="&#xf1;" horiz-adv-x="551" 
d="M79 0v450h52v-63c34 39 98 71 162 71c122 0 188 -60 188 -201v-257h-52v247c0 110 -48 162 -148 162c-62 0 -120 -33 -150 -69v-340h-52zM144 573l-23 25c38 38 72 52 101 52c47 0 70 -46 111 -46c23 0 43 11 74 38l19 -27c-37 -38 -70 -54 -98 -54c-44 0 -67 46 -112 46
c-20 0 -44 -12 -72 -34z" />
    <glyph glyph-name="ograve" unicode="&#xf2;" horiz-adv-x="567" 
d="M47 225c0 135 96 234 236 234s236 -99 236 -234s-96 -234 -236 -234s-236 99 -236 234zM102 225c0 -108 76 -185 181 -185c106 0 181 76 181 185c0 108 -75 185 -181 185c-104 0 -181 -76 -181 -185zM297 542l-116 142l41 31l108 -150z" />
    <glyph glyph-name="oacute" unicode="&#xf3;" horiz-adv-x="567" 
d="M47 225c0 135 96 234 236 234s236 -99 236 -234s-96 -234 -236 -234s-236 99 -236 234zM102 225c0 -108 76 -185 181 -185c106 0 181 76 181 185c0 108 -75 185 -181 185c-104 0 -181 -76 -181 -185zM386 685l-116 -143l-32 23l108 151z" />
    <glyph glyph-name="ocircumflex" unicode="&#xf4;" horiz-adv-x="567" 
d="M47 225c0 135 96 234 236 234s236 -99 236 -234s-96 -234 -236 -234s-236 99 -236 234zM102 225c0 -108 76 -185 181 -185c106 0 181 76 181 185c0 108 -75 185 -181 185c-104 0 -181 -76 -181 -185zM286 707l128 -131l-25 -32l-105 105l-107 -104l-26 31l131 131h4z" />
    <glyph glyph-name="otilde" unicode="&#xf5;" horiz-adv-x="567" 
d="M47 225c0 135 96 234 236 234s236 -99 236 -234s-96 -234 -236 -234s-236 99 -236 234zM102 225c0 -108 76 -185 181 -185c106 0 181 76 181 185c0 108 -75 185 -181 185c-104 0 -181 -76 -181 -185zM152 573l-23 25c38 38 72 52 101 52c47 0 70 -46 111 -46
c23 0 43 11 74 38l19 -27c-37 -38 -70 -54 -98 -54c-44 0 -67 46 -112 46c-20 0 -44 -12 -72 -34z" />
    <glyph glyph-name="odieresis" unicode="&#xf6;" horiz-adv-x="567" 
d="M47 225c0 135 96 234 236 234s236 -99 236 -234s-96 -234 -236 -234s-236 99 -236 234zM102 225c0 -108 76 -185 181 -185c106 0 181 76 181 185c0 108 -75 185 -181 185c-104 0 -181 -76 -181 -185zM150 618c0 20 15 33 34 33c15 0 31 -13 31 -33c0 -21 -16 -35 -31 -35
c-19 0 -34 14 -34 35zM358 618c0 20 15 33 34 33c15 0 31 -13 31 -33c0 -21 -16 -35 -31 -35c-19 0 -34 14 -34 35z" />
    <glyph glyph-name="divide" unicode="&#xf7;" horiz-adv-x="589" 
d="M260 570c0 16 13 34 35 34c20 0 34 -18 34 -34c0 -18 -14 -36 -34 -36c-22 0 -35 18 -35 36zM260 151c0 16 13 33 35 33c20 0 34 -17 34 -33c0 -19 -14 -36 -34 -36c-22 0 -35 17 -35 36zM71 337v46h446v-46h-446z" />
    <glyph glyph-name="oslash" unicode="&#xf8;" horiz-adv-x="567" 
d="M47 225c0 135 96 234 236 234c64 0 118 -21 159 -56l51 50l29 -32l-50 -50c30 -39 47 -90 47 -146c0 -135 -96 -234 -236 -234c-59 0 -110 18 -150 48l-53 -52l-30 33l51 50c-35 40 -54 94 -54 155zM102 225c0 -46 13 -87 37 -118l265 259c-31 28 -73 44 -121 44
c-104 0 -181 -76 -181 -185zM464 225c0 41 -11 78 -31 108l-262 -257c30 -23 68 -36 112 -36c106 0 181 76 181 185z" />
    <glyph glyph-name="ugrave" unicode="&#xf9;" horiz-adv-x="544" 
d="M464 450v-450h-52v71c-34 -42 -99 -80 -171 -80c-109 0 -172 62 -172 198v261h52v-250c0 -105 42 -160 139 -160c63 0 123 40 152 78v332h52zM284 542l-116 142l41 31l108 -150z" />
    <glyph glyph-name="uacute" unicode="&#xfa;" horiz-adv-x="544" 
d="M464 450v-450h-52v71c-34 -42 -99 -80 -171 -80c-109 0 -172 62 -172 198v261h52v-250c0 -105 42 -160 139 -160c63 0 123 40 152 78v332h52zM376 685l-116 -143l-32 23l108 151z" />
    <glyph glyph-name="ucircumflex" unicode="&#xfb;" horiz-adv-x="544" 
d="M464 450v-450h-52v71c-34 -42 -99 -80 -171 -80c-109 0 -172 62 -172 198v261h52v-250c0 -105 42 -160 139 -160c63 0 123 40 152 78v332h52zM271 707l128 -131l-25 -32l-105 105l-107 -104l-26 31l131 131h4z" />
    <glyph glyph-name="udieresis" unicode="&#xfc;" horiz-adv-x="544" 
d="M464 450v-450h-52v71c-34 -42 -99 -80 -171 -80c-109 0 -172 62 -172 198v261h52v-250c0 -105 42 -160 139 -160c63 0 123 40 152 78v332h52zM135 618c0 20 15 33 34 33c15 0 31 -13 31 -33c0 -21 -16 -35 -31 -35c-19 0 -34 14 -34 35zM343 618c0 20 15 33 34 33
c15 0 31 -13 31 -33c0 -21 -16 -35 -31 -35c-19 0 -34 14 -34 35z" />
    <glyph glyph-name="yacute" unicode="&#xfd;" horiz-adv-x="481" 
d="M467 450l-182 -450c-66 -161 -108 -200 -169 -200c-29 0 -53 9 -77 23l17 40c17 -8 35 -15 53 -15c46 0 79 37 117 128l10 24l-222 450h62l154 -318l32 -70c7 23 16 47 25 72l121 316h59zM342 685l-116 -143l-32 23l108 151z" />
    <glyph glyph-name="thorn" unicode="&#xfe;" horiz-adv-x="554" 
d="M79 -200v900h52v-307c36 38 99 66 165 66c130 0 210 -94 210 -227c0 -137 -91 -241 -231 -241c-55 0 -107 11 -144 38v-229h-52zM282 410c-63 0 -122 -33 -151 -70v-259c47 -31 92 -41 140 -41c109 0 180 79 180 189c0 107 -61 181 -169 181z" />
    <glyph glyph-name="ydieresis" unicode="&#xff;" horiz-adv-x="481" 
d="M467 450l-182 -450c-66 -161 -108 -200 -169 -200c-29 0 -53 9 -77 23l17 40c17 -8 35 -15 53 -15c46 0 79 37 117 128l10 24l-222 450h62l154 -318l32 -70c7 23 16 47 25 72l121 316h59zM107 618c0 20 15 33 34 33c15 0 31 -13 31 -33c0 -21 -16 -35 -31 -35
c-19 0 -34 14 -34 35zM315 618c0 20 15 33 34 33c15 0 31 -13 31 -33c0 -21 -16 -35 -31 -35c-19 0 -34 14 -34 35z" />
    <glyph glyph-name="Amacron" unicode="&#x100;" horiz-adv-x="697" 
d="M21 0l305 706h45l305 -706h-59l-102 238h-336l-102 -238h-56zM347 630l-146 -340h291zM198 778v43h300v-43h-300z" />
    <glyph glyph-name="amacron" unicode="&#x101;" horiz-adv-x="459" 
d="M93 375l-14 43c42 26 90 41 143 41c125 0 167 -66 167 -180v-279h-52v69c-28 -38 -72 -75 -154 -75c-83 0 -139 52 -139 134c0 90 74 140 171 140c36 0 86 -8 122 -34c0 107 -6 176 -118 176c-53 0 -86 -13 -126 -35zM199 43c76 0 113 38 138 71v75
c-33 24 -71 36 -117 36c-59 0 -121 -28 -121 -94c0 -56 44 -88 100 -88zM105 604v43h252v-43h-252z" />
    <glyph glyph-name="Abreve" unicode="&#x102;" horiz-adv-x="697" 
d="M21 0l305 706h45l305 -706h-59l-102 238h-336l-102 -238h-56zM347 630l-146 -340h291zM184 837l24 27c22 -26 67 -67 143 -67c66 0 113 34 140 67l21 -28c-29 -43 -86 -85 -161 -85c-87 0 -146 53 -167 86z" />
    <glyph glyph-name="abreve" unicode="&#x103;" horiz-adv-x="459" 
d="M93 375l-14 43c42 26 90 41 143 41c125 0 167 -66 167 -180v-279h-52v69c-28 -38 -72 -75 -154 -75c-83 0 -139 52 -139 134c0 90 74 140 171 140c36 0 86 -8 122 -34c0 107 -6 176 -118 176c-53 0 -86 -13 -126 -35zM199 43c76 0 113 38 138 71v75
c-33 24 -71 36 -117 36c-59 0 -121 -28 -121 -94c0 -56 44 -88 100 -88zM88 654l24 27c21 -25 56 -65 118 -65c54 0 92 33 117 64l20 -26c-27 -38 -68 -81 -139 -81c-79 0 -123 54 -140 81z" />
    <glyph glyph-name="Aogonek" unicode="&#x104;" horiz-adv-x="697" 
d="M655 -148l16 -33c-17 -11 -46 -19 -73 -19c-50 0 -113 21 -113 91c0 63 60 104 128 118l-98 229h-336l-102 -238h-56l305 706h45l305 -706h-12c-64 0 -127 -40 -127 -93c0 -52 47 -64 73 -64c12 0 28 1 45 9zM347 630l-146 -340h291z" />
    <glyph glyph-name="aogonek" unicode="&#x105;" horiz-adv-x="459" 
d="M380 -148l16 -33c-17 -11 -46 -19 -73 -19c-50 0 -113 21 -113 91c0 63 60 104 127 118v60c-28 -38 -72 -75 -154 -75c-83 0 -139 52 -139 134c0 90 74 140 171 140c36 0 86 -8 122 -34c0 107 -6 176 -118 176c-53 0 -86 -13 -126 -35l-14 43c42 26 90 41 143 41
c125 0 167 -66 167 -180v-279c-64 0 -127 -40 -127 -93c0 -52 47 -64 73 -64c12 0 28 1 45 9zM199 43c76 0 113 38 138 71v75c-33 24 -71 36 -117 36c-59 0 -121 -28 -121 -94c0 -56 44 -88 100 -88z" />
    <glyph glyph-name="Cacute" unicode="&#x106;" horiz-adv-x="656" 
d="M600 109l22 -41c-48 -48 -134 -77 -217 -77c-208 0 -351 141 -351 359c0 201 132 359 343 359c88 0 159 -22 212 -66l-26 -41c-50 38 -109 55 -185 55c-170 0 -286 -130 -286 -307c0 -184 122 -307 297 -307c75 0 142 26 191 66zM522 824l-182 -86l-16 31l179 99z" />
    <glyph glyph-name="cacute" unicode="&#x107;" horiz-adv-x="490" 
d="M429 102l26 -38c-38 -48 -104 -73 -170 -73c-139 0 -238 92 -238 234c0 131 96 234 224 234c70 0 132 -15 175 -56l-25 -42c-40 36 -90 49 -142 49c-95 0 -177 -78 -177 -185c0 -114 82 -185 187 -185c58 0 109 26 140 62zM376 685l-116 -143l-32 23l108 151z" />
    <glyph glyph-name="Ccircumflex" unicode="&#x108;" horiz-adv-x="656" 
d="M600 109l22 -41c-48 -48 -134 -77 -217 -77c-208 0 -351 141 -351 359c0 201 132 359 343 359c88 0 159 -22 212 -66l-26 -41c-50 38 -109 55 -185 55c-170 0 -286 -130 -286 -307c0 -184 122 -307 297 -307c75 0 142 26 191 66zM222 767l168 98h4l170 -98l-23 -30
l-149 81l-150 -81z" />
    <glyph glyph-name="ccircumflex" unicode="&#x109;" horiz-adv-x="490" 
d="M429 102l26 -38c-38 -48 -104 -73 -170 -73c-139 0 -238 92 -238 234c0 131 96 234 224 234c70 0 132 -15 175 -56l-25 -42c-40 36 -90 49 -142 49c-95 0 -177 -78 -177 -185c0 -114 82 -185 187 -185c58 0 109 26 140 62zM280 707l128 -131l-25 -32l-105 105l-107 -104
l-26 31l131 131h4z" />
    <glyph glyph-name="Cdotaccent" unicode="&#x10a;" horiz-adv-x="656" 
d="M600 109l22 -41c-48 -48 -134 -77 -217 -77c-208 0 -351 141 -351 359c0 201 132 359 343 359c88 0 159 -22 212 -66l-26 -41c-50 38 -109 55 -185 55c-170 0 -286 -130 -286 -307c0 -184 122 -307 297 -307c75 0 142 26 191 66zM342 806c0 22 18 36 39 36
c19 0 38 -14 38 -36c0 -24 -19 -37 -38 -37c-21 0 -39 13 -39 37z" />
    <glyph glyph-name="cdotaccent" unicode="&#x10b;" horiz-adv-x="490" 
d="M429 102l26 -38c-38 -48 -104 -73 -170 -73c-139 0 -238 92 -238 234c0 131 96 234 224 234c70 0 132 -15 175 -56l-25 -42c-40 36 -90 49 -142 49c-95 0 -177 -78 -177 -185c0 -114 82 -185 187 -185c58 0 109 26 140 62zM245 625c0 20 17 33 37 33c17 0 34 -13 34 -33
c0 -23 -17 -37 -34 -37c-20 0 -37 14 -37 37z" />
    <glyph glyph-name="Ccaron" unicode="&#x10c;" horiz-adv-x="656" 
d="M600 109l22 -41c-48 -48 -134 -77 -217 -77c-208 0 -351 141 -351 359c0 201 132 359 343 359c88 0 159 -22 212 -66l-26 -41c-50 38 -109 55 -185 55c-170 0 -286 -130 -286 -307c0 -184 122 -307 297 -307c75 0 142 26 191 66zM392 740l-171 98l23 30l150 -83l149 83
l21 -29l-168 -99h-4z" />
    <glyph glyph-name="ccaron" unicode="&#x10d;" horiz-adv-x="490" 
d="M429 102l26 -38c-38 -48 -104 -73 -170 -73c-139 0 -238 92 -238 234c0 131 96 234 224 234c70 0 132 -15 175 -56l-25 -42c-40 36 -90 49 -142 49c-95 0 -177 -78 -177 -185c0 -114 82 -185 187 -185c58 0 109 26 140 62zM279 546l-130 132l26 31l106 -111l106 111
l25 -31l-129 -132h-4z" />
    <glyph glyph-name="Dcaron" unicode="&#x10e;" horiz-adv-x="737" 
d="M111 0v700h11c50 0 107 3 168 3c280 0 393 -161 393 -343c0 -200 -134 -362 -401 -362c-51 0 -106 2 -162 2h-9zM288 651c-52 0 -80 -2 -122 -3v-596c57 -1 111 -2 118 -2c225 0 341 135 341 310c0 162 -104 291 -337 291zM335 740l-171 98l23 30l150 -83l149 83l21 -29
l-168 -99h-4z" />
    <glyph glyph-name="dcaron" unicode="&#x10f;" horiz-adv-x="553" 
d="M422 0v64c-35 -40 -90 -72 -155 -72c-133 0 -220 91 -220 231c0 139 105 236 245 236c52 0 93 -12 130 -39v280h52v-700h-52zM277 41c60 0 116 37 145 71v257c-46 31 -87 41 -129 41c-105 0 -191 -74 -191 -185c0 -115 72 -184 175 -184zM578 700h50c6 -10 9 -23 9 -40
c0 -71 -37 -118 -75 -137l-23 24c29 22 49 62 49 107c0 20 -4 34 -10 46z" />
    <glyph glyph-name="Dcroat" unicode="&#x110;" horiz-adv-x="758" 
d="M10 332v49h122v319h11c50 0 107 3 168 3c280 0 393 -161 393 -343c0 -200 -134 -362 -401 -362c-51 0 -106 2 -162 2h-9v332h-122zM309 651c-52 0 -80 -2 -122 -3v-267h198v-49h-198v-280c57 -1 111 -2 118 -2c225 0 341 135 341 310c0 162 -104 291 -337 291z" />
    <glyph glyph-name="dcroat" unicode="&#x111;" horiz-adv-x="553" 
d="M244 545v43h178v112h52v-112h103v-43h-103v-545h-52v64c-35 -40 -90 -72 -155 -72c-133 0 -220 91 -220 231c0 139 105 236 245 236c52 0 93 -12 130 -39v125h-178zM277 41c60 0 116 37 145 71v257c-46 31 -87 41 -129 41c-105 0 -191 -74 -191 -185
c0 -115 72 -184 175 -184z" />
    <glyph glyph-name="Emacron" unicode="&#x112;" horiz-adv-x="575" 
d="M111 0v700h387v-52h-332v-267h302v-52h-302v-277h342v-52h-397zM154 778v43h300v-43h-300z" />
    <glyph glyph-name="emacron" unicode="&#x113;" horiz-adv-x="524" 
d="M435 95l17 -40c-41 -43 -106 -64 -166 -64c-142 0 -239 92 -239 234c0 131 80 234 228 234c116 0 204 -80 204 -203c0 -17 -1 -30 -3 -42h-371c4 -108 76 -174 184 -174c61 0 115 23 146 55zM270 410c-100 0 -159 -65 -168 -153h324c-2 95 -62 153 -156 153zM139 604v43
h252v-43h-252z" />
    <glyph glyph-name="Edotaccent" unicode="&#x116;" horiz-adv-x="575" 
d="M111 0v700h387v-52h-332v-267h302v-52h-302v-277h342v-52h-397zM269 806c0 22 18 36 39 36c19 0 38 -14 38 -36c0 -24 -19 -37 -38 -37c-21 0 -39 13 -39 37z" />
    <glyph glyph-name="edotaccent" unicode="&#x117;" horiz-adv-x="524" 
d="M435 95l17 -40c-41 -43 -106 -64 -166 -64c-142 0 -239 92 -239 234c0 131 80 234 228 234c116 0 204 -80 204 -203c0 -17 -1 -30 -3 -42h-371c4 -108 76 -174 184 -174c61 0 115 23 146 55zM270 410c-100 0 -159 -65 -168 -153h324c-2 95 -62 153 -156 153zM229 625
c0 20 17 33 37 33c17 0 34 -13 34 -33c0 -23 -17 -37 -34 -37c-20 0 -37 14 -37 37z" />
    <glyph glyph-name="Eogonek" unicode="&#x118;" horiz-adv-x="575" 
d="M111 0v700h387v-52h-332v-267h302v-52h-302v-277h342v-52c-64 0 -127 -40 -127 -93c0 -52 47 -64 73 -64c12 0 28 1 45 9l16 -33c-17 -11 -46 -19 -73 -19c-50 0 -113 21 -113 91c0 53 42 90 96 109h-314z" />
    <glyph glyph-name="eogonek" unicode="&#x119;" horiz-adv-x="524" 
d="M435 95l17 -40c-21 -22 -49 -39 -79 -49c-43 -27 -73 -59 -73 -99c0 -52 47 -64 72 -64c13 0 29 1 46 9l16 -33c-17 -11 -46 -19 -73 -19c-50 0 -113 21 -113 91c0 43 27 76 70 102c-11 -1 -22 -2 -32 -2c-142 0 -239 92 -239 234c0 131 80 234 228 234
c116 0 204 -80 204 -203c0 -17 -1 -30 -3 -42h-371c4 -108 76 -174 184 -174c61 0 115 23 146 55zM270 410c-100 0 -159 -65 -168 -153h324c-2 95 -62 153 -156 153z" />
    <glyph glyph-name="Ecaron" unicode="&#x11a;" horiz-adv-x="575" 
d="M111 0v700h387v-52h-332v-267h302v-52h-302v-277h342v-52h-397zM312 740l-171 98l23 30l150 -83l149 83l21 -29l-168 -99h-4z" />
    <glyph glyph-name="ecaron" unicode="&#x11b;" horiz-adv-x="524" 
d="M435 95l17 -40c-41 -43 -106 -64 -166 -64c-142 0 -239 92 -239 234c0 131 80 234 228 234c116 0 204 -80 204 -203c0 -17 -1 -30 -3 -42h-371c4 -108 76 -174 184 -174c61 0 115 23 146 55zM270 410c-100 0 -159 -65 -168 -153h324c-2 95 -62 153 -156 153zM273 546
l-130 132l26 31l106 -111l106 111l25 -31l-129 -132h-4z" />
    <glyph glyph-name="Gcircumflex" unicode="&#x11c;" horiz-adv-x="727" 
d="M406 287v52h257v-252c-62 -62 -175 -96 -262 -96c-209 0 -347 141 -347 359c0 201 135 359 340 359c91 0 159 -21 216 -66l-25 -43c-46 39 -112 57 -185 57c-172 0 -288 -128 -288 -307c0 -186 118 -307 291 -307c76 0 163 29 208 73v171h-205zM222 767l168 98h4l170 -98
l-23 -30l-149 81l-150 -81z" />
    <glyph glyph-name="gcircumflex" unicode="&#x11d;" horiz-adv-x="490" 
d="M14 -66c0 71 54 117 138 135c-10 12 -15 28 -15 43c0 17 6 33 17 45c-59 25 -94 79 -94 143c0 90 70 159 178 159c45 0 83 -13 113 -34h1l128 34v-49l-91 -23c17 -25 27 -55 27 -87c0 -90 -71 -159 -178 -159c-16 0 -31 1 -45 4c-7 -10 -9 -21 -9 -33c0 -14 4 -26 13 -36
c14 1 27 2 42 2c131 0 225 -49 225 -144c0 -93 -94 -142 -225 -142s-225 47 -225 142zM67 -66c0 -59 68 -95 172 -95c105 0 172 36 172 95s-67 97 -172 97c-104 0 -172 -37 -172 -97zM113 300c0 -63 51 -112 125 -112c75 0 125 49 125 112s-53 112 -125 112
c-73 0 -125 -49 -125 -112zM245 707l128 -131l-25 -32l-105 105l-107 -104l-26 31l131 131h4z" />
    <glyph glyph-name="Gbreve" unicode="&#x11e;" horiz-adv-x="727" 
d="M406 287v52h257v-252c-62 -62 -175 -96 -262 -96c-209 0 -347 141 -347 359c0 201 135 359 340 359c91 0 159 -21 216 -66l-25 -43c-46 39 -112 57 -185 57c-172 0 -288 -128 -288 -307c0 -186 118 -307 291 -307c76 0 163 29 208 73v171h-205zM236 837l24 27
c22 -26 67 -67 143 -67c66 0 113 34 140 67l21 -28c-29 -43 -86 -85 -161 -85c-87 0 -146 53 -167 86z" />
    <glyph glyph-name="gbreve" unicode="&#x11f;" horiz-adv-x="490" 
d="M14 -66c0 71 54 117 138 135c-10 12 -15 28 -15 43c0 17 6 33 17 45c-59 25 -94 79 -94 143c0 90 70 159 178 159c45 0 83 -13 113 -34h1l128 34v-49l-91 -23c17 -25 27 -55 27 -87c0 -90 -71 -159 -178 -159c-16 0 -31 1 -45 4c-7 -10 -9 -21 -9 -33c0 -14 4 -26 13 -36
c14 1 27 2 42 2c131 0 225 -49 225 -144c0 -93 -94 -142 -225 -142s-225 47 -225 142zM67 -66c0 -59 68 -95 172 -95c105 0 172 36 172 95s-67 97 -172 97c-104 0 -172 -37 -172 -97zM113 300c0 -63 51 -112 125 -112c75 0 125 49 125 112s-53 112 -125 112
c-73 0 -125 -49 -125 -112zM101 654l24 27c21 -25 56 -65 118 -65c54 0 92 33 117 64l20 -26c-27 -38 -68 -81 -139 -81c-79 0 -123 54 -140 81z" />
    <glyph glyph-name="Gdotaccent" unicode="&#x120;" horiz-adv-x="727" 
d="M406 287v52h257v-252c-62 -62 -175 -96 -262 -96c-209 0 -347 141 -347 359c0 201 135 359 340 359c91 0 159 -21 216 -66l-25 -43c-46 39 -112 57 -185 57c-172 0 -288 -128 -288 -307c0 -186 118 -307 291 -307c76 0 163 29 208 73v171h-205zM346 806c0 22 18 36 39 36
c19 0 38 -14 38 -36c0 -24 -19 -37 -38 -37c-21 0 -39 13 -39 37z" />
    <glyph glyph-name="gdotaccent" unicode="&#x121;" horiz-adv-x="490" 
d="M14 -66c0 71 54 117 138 135c-10 12 -15 28 -15 43c0 17 6 33 17 45c-59 25 -94 79 -94 143c0 90 70 159 178 159c45 0 83 -13 113 -34h1l128 34v-49l-91 -23c17 -25 27 -55 27 -87c0 -90 -71 -159 -178 -159c-16 0 -31 1 -45 4c-7 -10 -9 -21 -9 -33c0 -14 4 -26 13 -36
c14 1 27 2 42 2c131 0 225 -49 225 -144c0 -93 -94 -142 -225 -142s-225 47 -225 142zM67 -66c0 -59 68 -95 172 -95c105 0 172 36 172 95s-67 97 -172 97c-104 0 -172 -37 -172 -97zM113 300c0 -63 51 -112 125 -112c75 0 125 49 125 112s-53 112 -125 112
c-73 0 -125 -49 -125 -112zM205 625c0 20 17 33 37 33c17 0 34 -13 34 -33c0 -23 -17 -37 -34 -37c-20 0 -37 14 -37 37z" />
    <glyph glyph-name="Gcommaaccent" unicode="&#x122;" horiz-adv-x="727" 
d="M406 287v52h257v-252c-62 -62 -175 -96 -262 -96c-209 0 -347 141 -347 359c0 201 135 359 340 359c91 0 159 -21 216 -66l-25 -43c-46 39 -112 57 -185 57c-172 0 -288 -128 -288 -307c0 -186 118 -307 291 -307c76 0 163 29 208 73v171h-205zM362 -71l45 16
c20 -4 35 -21 35 -50c0 -57 -40 -85 -85 -97l-15 24c33 13 48 33 48 65c0 25 -12 37 -28 42z" />
    <glyph glyph-name="gcommaaccent" unicode="&#x123;" horiz-adv-x="490" 
d="M14 -66c0 71 54 117 138 135c-10 12 -15 28 -15 43c0 17 6 33 17 45c-59 25 -94 79 -94 143c0 90 70 159 178 159c45 0 83 -13 113 -34h1l128 34v-49l-91 -23c17 -25 27 -55 27 -87c0 -90 -71 -159 -178 -159c-16 0 -31 1 -45 4c-7 -10 -9 -21 -9 -33c0 -14 4 -26 13 -36
c14 1 27 2 42 2c131 0 225 -49 225 -144c0 -93 -94 -142 -225 -142s-225 47 -225 142zM67 -66c0 -59 68 -95 172 -95c105 0 172 36 172 95s-67 97 -172 97c-104 0 -172 -37 -172 -97zM113 300c0 -63 51 -112 125 -112c75 0 125 49 125 112s-53 112 -125 112
c-73 0 -125 -49 -125 -112zM274 568l-45 -16c-20 4 -35 21 -35 50c0 57 40 85 85 97l15 -24c-33 -13 -48 -33 -48 -65c0 -25 12 -37 28 -42z" />
    <glyph glyph-name="Hcircumflex" unicode="&#x124;" horiz-adv-x="769" 
d="M603 0v331h-437v-331h-55v700h55v-317h437v317h55v-700h-55zM214 767l168 98h4l170 -98l-23 -30l-149 81l-150 -81z" />
    <glyph glyph-name="hcircumflex" unicode="&#x125;" horiz-adv-x="551" 
d="M79 0v700h52v-311c35 39 100 69 162 69c122 0 188 -61 188 -202v-256h-52v248c0 108 -48 161 -148 161c-61 0 -121 -33 -150 -69v-340h-52zM-10 767l168 98h4l170 -98l-23 -30l-149 81l-150 -81z" />
    <glyph glyph-name="Hbar" unicode="&#x126;" horiz-adv-x="779" 
d="M27 521v49h89v130h55v-130h437v130h55v-130h89v-49h-89v-521h-55v331h-437v-331h-55v521h-89zM171 383h437v138h-437v-138z" />
    <glyph glyph-name="hbar" unicode="&#x127;" horiz-adv-x="566" 
d="M-32 532v49h126v119h52v-119h173v-49h-173v-143c35 39 100 69 162 69c122 0 188 -61 188 -202v-256h-52v248c0 108 -48 161 -148 161c-61 0 -121 -33 -150 -69v-340h-52v532h-126z" />
    <glyph glyph-name="Imacron" unicode="&#x12a;" horiz-adv-x="325" 
d="M135 0v700h55v-700h-55zM14 778v43h300v-43h-300z" />
    <glyph glyph-name="imacron" unicode="&#x12b;" horiz-adv-x="261" 
d="M104 0v450h52v-450h-52zM4 604v43h252v-43h-252z" />
    <glyph glyph-name="Iogonek" unicode="&#x12e;" horiz-adv-x="325" 
d="M181 -148l16 -33c-17 -11 -46 -19 -73 -19c-50 0 -113 21 -113 91c0 62 58 103 124 117v692h55v-700h-5c-63 -2 -122 -41 -122 -93s47 -64 73 -64c12 0 28 1 45 9z" />
    <glyph glyph-name="iogonek" unicode="&#x12f;" horiz-adv-x="261" 
d="M147 -148l16 -33c-17 -11 -46 -19 -73 -19c-50 0 -113 21 -113 91c0 63 60 104 127 118v441h52v-450h-5c-63 -2 -122 -41 -122 -93s47 -64 73 -64c12 0 28 1 45 9zM93 625c0 20 17 33 37 33c17 0 34 -13 34 -33c0 -23 -17 -37 -34 -37c-20 0 -37 14 -37 37z" />
    <glyph glyph-name="Idotaccent" unicode="&#x130;" horiz-adv-x="325" 
d="M135 0v700h55v-700h-55zM125 806c0 22 18 36 39 36c19 0 38 -14 38 -36c0 -24 -19 -37 -38 -37c-21 0 -39 13 -39 37z" />
    <glyph glyph-name="dotlessi" unicode="&#x131;" horiz-adv-x="261" 
d="M104 0v450h52v-450h-52z" />
    <glyph glyph-name="Jcircumflex" unicode="&#x134;" horiz-adv-x="361" 
d="M250 700v-546c0 -99 -36 -163 -140 -163c-42 0 -78 16 -96 32l20 43c16 -12 43 -23 69 -23c75 0 92 52 92 119v538h55zM45 767l168 98h4l170 -98l-23 -30l-149 81l-150 -81z" />
    <glyph glyph-name="jcircumflex" unicode="&#x135;" horiz-adv-x="260" 
d="M159 450v-483c0 -110 -41 -175 -141 -175c-39 0 -73 13 -92 28l16 42c16 -11 40 -21 65 -21c72 0 100 48 100 130v479h52zM136 707l128 -131l-25 -32l-105 105l-107 -104l-26 31l131 131h4z" />
    <glyph glyph-name="Kcommaaccent" unicode="&#x136;" horiz-adv-x="637" 
d="M595 700l-331 -331l345 -369h-71l-339 365l329 335h67zM111 0v700h55v-700h-55zM274 -71l45 16c20 -4 35 -21 35 -50c0 -57 -40 -85 -85 -97l-15 24c33 13 48 33 48 65c0 25 -12 37 -28 42z" />
    <glyph glyph-name="kcommaaccent" unicode="&#x137;" horiz-adv-x="473" 
d="M434 450l-210 -211l229 -239h-70l-223 235l206 215h68zM79 0v700h52v-700h-52zM192 -71l45 16c20 -4 35 -21 35 -50c0 -57 -40 -85 -85 -97l-15 24c33 13 48 33 48 65c0 25 -12 37 -28 42z" />
    <glyph glyph-name="Lacute" unicode="&#x139;" horiz-adv-x="552" 
d="M111 0v700h55v-648h369v-52h-424zM426 824l-182 -86l-16 31l179 99z" />
    <glyph glyph-name="lacute" unicode="&#x13a;" horiz-adv-x="282" 
d="M79 116v584h52v-556c0 -68 17 -101 65 -101c24 0 48 11 63 22l13 -41c-21 -16 -54 -30 -95 -30c-67 0 -98 40 -98 122zM268 824l-182 -86l-16 31l179 99z" />
    <glyph glyph-name="Lcommaaccent" unicode="&#x13b;" horiz-adv-x="552" 
d="M111 0v700h55v-648h369v-52h-424zM276 -71l45 16c20 -4 35 -21 35 -50c0 -57 -40 -85 -85 -97l-15 24c33 13 48 33 48 65c0 25 -12 37 -28 42z" />
    <glyph glyph-name="lcommaaccent" unicode="&#x13c;" horiz-adv-x="282" 
d="M79 116v584h52v-556c0 -68 17 -101 65 -101c24 0 48 11 63 22l13 -41c-21 -16 -54 -30 -95 -30c-67 0 -98 40 -98 122zM126 -71l45 16c20 -4 35 -21 35 -50c0 -57 -40 -85 -85 -97l-15 24c33 13 48 33 48 65c0 25 -12 37 -28 42z" />
    <glyph glyph-name="Lcaron" unicode="&#x13d;" horiz-adv-x="552" 
d="M111 0v700h55v-648h369v-52h-424zM357 700h50c6 -10 9 -23 9 -40c0 -71 -37 -118 -75 -137l-23 24c29 22 49 62 49 107c0 20 -4 34 -10 46z" />
    <glyph glyph-name="lcaron" unicode="&#x13e;" horiz-adv-x="282" 
d="M79 116v584h52v-556c0 -68 17 -101 65 -101c24 0 48 11 63 22l13 -41c-21 -16 -54 -30 -95 -30c-67 0 -98 40 -98 122zM239 700h50c6 -10 9 -23 9 -40c0 -71 -37 -118 -75 -137l-23 24c29 22 49 62 49 107c0 20 -4 34 -10 46z" />
    <glyph glyph-name="Ldot" unicode="&#x13f;" horiz-adv-x="552" 
d="M111 0v700h55v-648h369v-52h-424zM378 374c0 18 16 36 40 36c21 0 36 -18 36 -36c0 -21 -15 -40 -36 -40c-24 0 -40 19 -40 40z" />
    <glyph glyph-name="ldot" unicode="&#x140;" horiz-adv-x="303" 
d="M79 116v584h52v-556c0 -68 17 -101 65 -101c24 0 48 11 63 22l13 -41c-21 -16 -54 -30 -95 -30c-67 0 -98 40 -98 122zM224 317c0 20 17 33 37 33c17 0 34 -13 34 -33c0 -23 -17 -37 -34 -37c-20 0 -37 14 -37 37z" />
    <glyph glyph-name="Lslash" unicode="&#x141;" horiz-adv-x="562" 
d="M27 231v55l94 47v367h55v-339l187 94v-54l-187 -95v-254h369v-52h-424v278z" />
    <glyph glyph-name="lslash" unicode="&#x142;" horiz-adv-x="312" 
d="M17 238v55l82 41v366h52v-340l113 57v-54l-113 -57v-162c0 -68 17 -101 65 -101c24 0 48 11 63 22l13 -41c-21 -16 -54 -30 -95 -30c-67 0 -98 40 -98 122v163z" />
    <glyph glyph-name="Nacute" unicode="&#x143;" horiz-adv-x="797" 
d="M686 0h-44l-479 602v-602h-52v700h44l479 -604v604h52v-700zM549 824l-182 -86l-16 31l179 99z" />
    <glyph glyph-name="nacute" unicode="&#x144;" horiz-adv-x="551" 
d="M79 0v450h52v-63c34 39 98 71 162 71c122 0 188 -60 188 -201v-257h-52v247c0 110 -48 162 -148 162c-62 0 -120 -33 -150 -69v-340h-52zM381 685l-116 -143l-32 23l108 151z" />
    <glyph glyph-name="Ncommaaccent" unicode="&#x145;" horiz-adv-x="797" 
d="M686 0h-44l-479 602v-602h-52v700h44l479 -604v604h52v-700zM359 -71l45 16c20 -4 35 -21 35 -50c0 -57 -40 -85 -85 -97l-15 24c33 13 48 33 48 65c0 25 -12 37 -28 42z" />
    <glyph glyph-name="ncommaaccent" unicode="&#x146;" horiz-adv-x="551" 
d="M79 0v450h52v-63c34 39 98 71 162 71c122 0 188 -60 188 -201v-257h-52v247c0 110 -48 162 -148 162c-62 0 -120 -33 -150 -69v-340h-52zM240 -71l45 16c20 -4 35 -21 35 -50c0 -57 -40 -85 -85 -97l-15 24c33 13 48 33 48 65c0 25 -12 37 -28 42z" />
    <glyph glyph-name="Ncaron" unicode="&#x147;" horiz-adv-x="797" 
d="M686 0h-44l-479 602v-602h-52v700h44l479 -604v604h52v-700zM397 740l-171 98l23 30l150 -83l149 83l21 -29l-168 -99h-4z" />
    <glyph glyph-name="ncaron" unicode="&#x148;" horiz-adv-x="551" 
d="M79 0v450h52v-63c34 39 98 71 162 71c122 0 188 -60 188 -201v-257h-52v247c0 110 -48 162 -148 162c-62 0 -120 -33 -150 -69v-340h-52zM273 546l-130 132l26 31l106 -111l106 111l25 -31l-129 -132h-4z" />
    <glyph glyph-name="Omacron" unicode="&#x14c;" horiz-adv-x="810" 
d="M54 350c0 203 149 359 351 359c199 0 351 -150 351 -359c0 -206 -152 -359 -351 -359s-351 150 -351 359zM112 350c0 -175 128 -307 293 -307c171 0 293 133 293 307c0 177 -128 307 -293 307c-166 0 -293 -130 -293 -307zM258 778v43h300v-43h-300z" />
    <glyph glyph-name="omacron" unicode="&#x14d;" horiz-adv-x="567" 
d="M47 225c0 135 96 234 236 234s236 -99 236 -234s-96 -234 -236 -234s-236 99 -236 234zM102 225c0 -108 76 -185 181 -185c106 0 181 76 181 185c0 108 -75 185 -181 185c-104 0 -181 -76 -181 -185zM160 604v43h252v-43h-252z" />
    <glyph glyph-name="Ohungarumlaut" unicode="&#x150;" horiz-adv-x="810" 
d="M54 350c0 203 149 359 351 359c199 0 351 -150 351 -359c0 -206 -152 -359 -351 -359s-351 150 -351 359zM112 350c0 -175 128 -307 293 -307c171 0 293 133 293 307c0 177 -128 307 -293 307c-166 0 -293 -130 -293 -307zM649 835l-169 -97l-22 24l156 106zM464 843
l-158 -105l-23 22l139 108z" />
    <glyph glyph-name="ohungarumlaut" unicode="&#x151;" horiz-adv-x="567" 
d="M47 225c0 135 96 234 236 234s236 -99 236 -234s-96 -234 -236 -234s-236 99 -236 234zM102 225c0 -108 76 -185 181 -185c106 0 181 76 181 185c0 108 -75 185 -181 185c-104 0 -181 -76 -181 -185zM474 683l-119 -141l-32 23l113 147zM318 688l-112 -146l-32 23
l106 151z" />
    <glyph glyph-name="OE" unicode="&#x152;" horiz-adv-x="1045" 
d="M581 0v36c-46 -28 -109 -45 -176 -45c-208 0 -351 141 -351 359c0 201 132 359 343 359c73 0 135 -15 184 -46v37h387v-52h-332v-267h302v-52h-302v-277h342v-52h-397zM409 43c69 0 125 18 172 52v508c-50 37 -108 54 -183 54c-170 0 -286 -130 -286 -307
c0 -184 122 -307 297 -307z" />
    <glyph glyph-name="oe" unicode="&#x153;" horiz-adv-x="843" 
d="M753 95l17 -40c-41 -43 -106 -64 -166 -64c-66 0 -121 19 -162 54c-41 -35 -94 -54 -159 -54c-140 0 -236 99 -236 234s96 234 236 234c63 0 116 -20 156 -53c37 33 89 53 154 53c116 0 205 -80 205 -203c0 -17 -2 -30 -4 -42h-370c4 -108 76 -174 184 -174
c60 0 114 23 145 55zM283 40c50 0 93 17 124 44c-26 37 -41 85 -41 141c0 54 13 103 39 142c-31 26 -71 43 -122 43c-105 0 -181 -76 -181 -185c0 -108 75 -185 181 -185zM589 410c-101 0 -160 -65 -168 -153h323c-2 95 -62 153 -155 153z" />
    <glyph glyph-name="Racute" unicode="&#x154;" horiz-adv-x="631" 
d="M166 0h-55v700c39 0 148 2 168 2c191 0 245 -95 245 -202c0 -100 -72 -175 -166 -195l245 -305h-68l-233 294h-136v-294zM276 650c-21 0 -77 -1 -110 -2v-302h121c89 0 179 61 179 154c0 85 -48 150 -190 150zM407 824l-182 -86l-16 31l179 99z" />
    <glyph glyph-name="racute" unicode="&#x155;" horiz-adv-x="329" 
d="M79 0v450h52v-60c25 38 62 68 121 68c37 0 55 -6 70 -17l-18 -49c-22 13 -34 17 -63 17c-59 0 -89 -37 -110 -73v-336h-52zM297 685l-116 -143l-32 23l108 151z" />
    <glyph glyph-name="Rcommaaccent" unicode="&#x156;" horiz-adv-x="631" 
d="M166 0h-55v700c39 0 148 2 168 2c191 0 245 -95 245 -202c0 -100 -72 -175 -166 -195l245 -305h-68l-233 294h-136v-294zM276 650c-21 0 -77 -1 -110 -2v-302h121c89 0 179 61 179 154c0 85 -48 150 -190 150zM271 -71l45 16c20 -4 35 -21 35 -50c0 -57 -40 -85 -85 -97
l-15 24c33 13 48 33 48 65c0 25 -12 37 -28 42z" />
    <glyph glyph-name="rcommaaccent" unicode="&#x157;" horiz-adv-x="329" 
d="M79 0v450h52v-60c25 38 62 68 121 68c37 0 55 -6 70 -17l-18 -49c-22 13 -34 17 -63 17c-59 0 -89 -37 -110 -73v-336h-52zM115 -71l45 16c20 -4 35 -21 35 -50c0 -57 -40 -85 -85 -97l-15 24c33 13 48 33 48 65c0 25 -12 37 -28 42z" />
    <glyph glyph-name="Rcaron" unicode="&#x158;" horiz-adv-x="631" 
d="M166 0h-55v700c39 0 148 2 168 2c191 0 245 -95 245 -202c0 -100 -72 -175 -166 -195l245 -305h-68l-233 294h-136v-294zM276 650c-21 0 -77 -1 -110 -2v-302h121c89 0 179 61 179 154c0 85 -48 150 -190 150zM280 740l-171 98l23 30l150 -83l149 83l21 -29l-168 -99h-4z
" />
    <glyph glyph-name="rcaron" unicode="&#x159;" horiz-adv-x="329" 
d="M79 0v450h52v-60c25 38 62 68 121 68c37 0 55 -6 70 -17l-18 -49c-22 13 -34 17 -63 17c-59 0 -89 -37 -110 -73v-336h-52zM189 546l-130 132l26 31l106 -111l106 111l25 -31l-129 -132h-4z" />
    <glyph glyph-name="Sacute" unicode="&#x15a;" horiz-adv-x="546" 
d="M434 174c0 198 -362 126 -362 360c0 98 75 175 205 175c78 0 149 -28 188 -71l-30 -41c-40 40 -92 60 -156 60c-92 0 -149 -49 -149 -123c0 -196 362 -116 362 -359c0 -112 -99 -184 -223 -184c-83 0 -180 38 -215 101l33 38c41 -56 118 -87 181 -87c86 0 166 45 166 131
zM420 824l-182 -86l-16 31l179 99z" />
    <glyph glyph-name="sacute" unicode="&#x15b;" horiz-adv-x="418" 
d="M312 118c0 113 -249 57 -249 222c0 72 59 119 145 119c63 0 115 -23 141 -50l-22 -39c-28 26 -72 43 -118 43c-56 0 -91 -33 -91 -72c0 -119 249 -63 249 -221c0 -89 -76 -129 -162 -129c-63 0 -133 33 -154 65l29 34c25 -32 86 -53 131 -53c52 0 101 26 101 81zM315 685
l-116 -143l-32 23l108 151z" />
    <glyph glyph-name="Scircumflex" unicode="&#x15c;" horiz-adv-x="546" 
d="M434 174c0 198 -362 126 -362 360c0 98 75 175 205 175c78 0 149 -28 188 -71l-30 -41c-40 40 -92 60 -156 60c-92 0 -149 -49 -149 -123c0 -196 362 -116 362 -359c0 -112 -99 -184 -223 -184c-83 0 -180 38 -215 101l33 38c41 -56 118 -87 181 -87c86 0 166 45 166 131
zM102 767l168 98h4l170 -98l-23 -30l-149 81l-150 -81z" />
    <glyph glyph-name="scircumflex" unicode="&#x15d;" horiz-adv-x="418" 
d="M312 118c0 113 -249 57 -249 222c0 72 59 119 145 119c63 0 115 -23 141 -50l-22 -39c-28 26 -72 43 -118 43c-56 0 -91 -33 -91 -72c0 -119 249 -63 249 -221c0 -89 -76 -129 -162 -129c-63 0 -133 33 -154 65l29 34c25 -32 86 -53 131 -53c52 0 101 26 101 81zM215 707
l128 -131l-25 -32l-105 105l-107 -104l-26 31l131 131h4z" />
    <glyph glyph-name="Scedilla" unicode="&#x15e;" horiz-adv-x="546" 
d="M165 -173l17 28c23 -13 52 -24 74 -24c40 0 70 17 70 46s-19 47 -71 47h-6v68c-78 5 -163 42 -195 100l33 38c41 -56 118 -87 181 -87c86 0 166 45 166 131c0 198 -362 126 -362 360c0 98 75 175 205 175c78 0 149 -28 188 -71l-30 -41c-40 40 -92 60 -156 60
c-92 0 -149 -49 -149 -123c0 -196 362 -116 362 -359c0 -109 -94 -180 -213 -184v-41c72 -2 102 -31 102 -76s-43 -77 -114 -77c-46 0 -77 15 -102 30z" />
    <glyph glyph-name="scedilla" unicode="&#x15f;" horiz-adv-x="418" 
d="M102 -174l16 27c23 -14 50 -22 72 -22c40 0 70 17 70 46s-19 47 -71 47h-6v69c-57 6 -114 34 -132 63l29 34c25 -32 86 -53 131 -53c52 0 101 26 101 81c0 113 -249 57 -249 222c0 72 59 119 145 119c63 0 115 -23 141 -50l-22 -39c-28 26 -72 43 -118 43
c-56 0 -91 -33 -91 -72c0 -119 249 -63 249 -221c0 -86 -72 -126 -154 -129v-41c68 -2 99 -31 99 -76s-42 -77 -115 -77c-42 0 -70 14 -95 29z" />
    <glyph glyph-name="Scaron" unicode="&#x160;" horiz-adv-x="546" 
d="M434 174c0 198 -362 126 -362 360c0 98 75 175 205 175c78 0 149 -28 188 -71l-30 -41c-40 40 -92 60 -156 60c-92 0 -149 -49 -149 -123c0 -196 362 -116 362 -359c0 -112 -99 -184 -223 -184c-83 0 -180 38 -215 101l33 38c41 -56 118 -87 181 -87c86 0 166 45 166 131
zM277 740l-171 98l23 30l150 -83l149 83l21 -29l-168 -99h-4z" />
    <glyph glyph-name="scaron" unicode="&#x161;" horiz-adv-x="418" 
d="M312 118c0 113 -249 57 -249 222c0 72 59 119 145 119c63 0 115 -23 141 -50l-22 -39c-28 26 -72 43 -118 43c-56 0 -91 -33 -91 -72c0 -119 249 -63 249 -221c0 -89 -76 -129 -162 -129c-63 0 -133 33 -154 65l29 34c25 -32 86 -53 131 -53c52 0 101 26 101 81zM207 546
l-130 132l26 31l106 -111l106 111l25 -31l-129 -132h-4z" />
    <glyph glyph-name="Tcedilla" unicode="&#x162;" horiz-adv-x="593" 
d="M198 -173l17 28c23 -13 52 -24 74 -24c40 0 70 17 70 46s-19 47 -71 47h-6v76h-13v648h-259v52h573v-52h-259v-648h-12v-50c72 -2 102 -31 102 -76s-43 -77 -114 -77c-46 0 -77 15 -102 30z" />
    <glyph glyph-name="tcedilla" unicode="&#x163;" horiz-adv-x="348" 
d="M82 -174l16 27c23 -14 50 -22 72 -22c40 0 70 17 70 46s-19 47 -71 47h-6v76c-66 17 -94 76 -94 171v404h52v-125h181v-49h-181v-222c0 -88 29 -136 101 -136c30 0 56 12 72 24l17 -41c-21 -17 -58 -32 -101 -32c-6 0 -12 0 -17 1v-45c68 -2 99 -31 99 -76
s-42 -77 -115 -77c-42 0 -70 14 -95 29z" />
    <glyph glyph-name="Tcaron" unicode="&#x164;" horiz-adv-x="593" 
d="M10 648v52h573v-52h-259v-648h-55v648h-259zM294 740l-171 98l23 30l150 -83l149 83l21 -29l-168 -99h-4z" />
    <glyph glyph-name="tcaron" unicode="&#x165;" horiz-adv-x="348" 
d="M69 171v404h52v-125h181v-49h-181v-222c0 -88 29 -136 101 -136c30 0 56 12 72 24l17 -41c-21 -17 -58 -32 -101 -32c-100 0 -141 62 -141 177zM243 700h50c6 -10 9 -23 9 -40c0 -71 -37 -118 -75 -137l-23 24c29 22 49 62 49 107c0 20 -4 34 -10 46z" />
    <glyph glyph-name="Umacron" unicode="&#x16a;" horiz-adv-x="751" 
d="M650 700v-407c0 -214 -124 -301 -265 -301c-163 0 -284 103 -284 308v400h55v-390c0 -170 91 -266 229 -266c123 0 210 82 210 261v395h55zM228 778v43h300v-43h-300z" />
    <glyph glyph-name="umacron" unicode="&#x16b;" horiz-adv-x="544" 
d="M464 450v-450h-52v71c-34 -42 -99 -80 -171 -80c-109 0 -172 62 -172 198v261h52v-250c0 -105 42 -160 139 -160c63 0 123 40 152 78v332h52zM144 604v43h252v-43h-252z" />
    <glyph glyph-name="Ubreve" unicode="&#x16c;" horiz-adv-x="751" 
d="M650 700v-407c0 -214 -124 -301 -265 -301c-163 0 -284 103 -284 308v400h55v-390c0 -170 91 -266 229 -266c123 0 210 82 210 261v395h55zM210 837l24 27c22 -26 67 -67 143 -67c66 0 113 34 140 67l21 -28c-29 -43 -86 -85 -161 -85c-87 0 -146 53 -167 86z" />
    <glyph glyph-name="ubreve" unicode="&#x16d;" horiz-adv-x="544" 
d="M464 450v-450h-52v71c-34 -42 -99 -80 -171 -80c-109 0 -172 62 -172 198v261h52v-250c0 -105 42 -160 139 -160c63 0 123 40 152 78v332h52zM130 654l24 27c21 -25 56 -65 118 -65c54 0 92 33 117 64l20 -26c-27 -38 -68 -81 -139 -81c-79 0 -123 54 -140 81z" />
    <glyph glyph-name="Uring" unicode="&#x16e;" horiz-adv-x="751" 
d="M650 700v-407c0 -214 -124 -301 -265 -301c-163 0 -284 103 -284 308v400h55v-390c0 -170 91 -266 229 -266c123 0 210 82 210 261v395h55zM264 785c0 61 50 88 111 88c63 0 113 -27 113 -88c0 -60 -50 -91 -113 -91c-61 0 -111 31 -111 91zM304 785c0 -40 31 -60 72 -60
c40 0 72 20 72 60s-32 57 -72 57c-41 0 -72 -17 -72 -57z" />
    <glyph glyph-name="uring" unicode="&#x16f;" horiz-adv-x="544" 
d="M464 450v-450h-52v71c-34 -42 -99 -80 -171 -80c-109 0 -172 62 -172 198v261h52v-250c0 -105 42 -160 139 -160c63 0 123 40 152 78v332h52zM164 614c0 57 46 104 105 104c60 0 107 -47 107 -104s-47 -103 -107 -103c-59 0 -105 46 -105 103zM199 614
c0 -40 31 -72 71 -72s71 32 71 72s-31 73 -71 73s-71 -33 -71 -73z" />
    <glyph glyph-name="Uhungarumlaut" unicode="&#x170;" horiz-adv-x="751" 
d="M650 700v-407c0 -214 -124 -301 -265 -301c-163 0 -284 103 -284 308v400h55v-390c0 -170 91 -266 229 -266c123 0 210 82 210 261v395h55zM606 835l-169 -97l-22 24l156 106zM421 843l-158 -105l-23 22l139 108z" />
    <glyph glyph-name="uhungarumlaut" unicode="&#x171;" horiz-adv-x="544" 
d="M464 450v-450h-52v71c-34 -42 -99 -80 -171 -80c-109 0 -172 62 -172 198v261h52v-250c0 -105 42 -160 139 -160c63 0 123 40 152 78v332h52zM461 683l-119 -141l-32 23l113 147zM305 688l-112 -146l-32 23l106 151z" />
    <glyph glyph-name="Uogonek" unicode="&#x172;" horiz-adv-x="751" 
d="M650 700v-407c0 -179 -87 -270 -198 -294c-48 -20 -84 -49 -84 -92c0 -52 47 -64 73 -64c12 0 28 1 45 9l16 -33c-17 -11 -46 -19 -73 -19c-50 0 -113 21 -113 91c0 48 33 79 79 101h-10c-163 0 -284 103 -284 308v400h55v-390c0 -170 91 -266 229 -266
c123 0 210 82 210 261v395h55z" />
    <glyph glyph-name="uogonek" unicode="&#x173;" horiz-adv-x="544" 
d="M455 -148l16 -33c-17 -11 -46 -19 -73 -19c-50 0 -113 21 -113 91c0 63 60 104 127 118v62c-34 -42 -99 -80 -171 -80c-109 0 -172 62 -172 198v261h52v-250c0 -105 42 -160 139 -160c63 0 123 40 152 78v332h52v-450c-64 0 -127 -40 -127 -93c0 -52 47 -64 73 -64
c12 0 28 1 45 9z" />
    <glyph glyph-name="Ydieresis" unicode="&#x178;" horiz-adv-x="584" 
d="M570 700l-252 -394v-306h-55v306l-249 394h64l215 -342l216 342h61zM139 804c0 20 17 32 38 32c18 0 36 -12 36 -32c0 -22 -18 -34 -36 -34c-21 0 -38 12 -38 34zM372 804c0 20 18 32 39 32c18 0 35 -12 35 -32c0 -22 -17 -34 -35 -34c-21 0 -39 12 -39 34z" />
    <glyph glyph-name="Zacute" unicode="&#x179;" horiz-adv-x="629" 
d="M60 648v52h519v-35l-463 -613h473v-52h-549v35l461 613h-441zM458 824l-182 -86l-16 31l179 99z" />
    <glyph glyph-name="zacute" unicode="&#x17a;" horiz-adv-x="481" 
d="M62 401v49h372v-34l-312 -367h307v-49h-382v34l311 367h-296zM350 685l-116 -143l-32 23l108 151z" />
    <glyph glyph-name="Zdotaccent" unicode="&#x17b;" horiz-adv-x="629" 
d="M60 648v52h519v-35l-463 -613h473v-52h-549v35l461 613h-441zM271 806c0 22 18 36 39 36c19 0 38 -14 38 -36c0 -24 -19 -37 -38 -37c-21 0 -39 13 -39 37z" />
    <glyph glyph-name="zdotaccent" unicode="&#x17c;" horiz-adv-x="481" 
d="M62 401v49h372v-34l-312 -367h307v-49h-382v34l311 367h-296zM203 625c0 20 17 33 37 33c17 0 34 -13 34 -33c0 -23 -17 -37 -34 -37c-20 0 -37 14 -37 37z" />
    <glyph glyph-name="Zcaron" unicode="&#x17d;" horiz-adv-x="629" 
d="M60 648v52h519v-35l-463 -613h473v-52h-549v35l461 613h-441zM314 740l-171 98l23 30l150 -83l149 83l21 -29l-168 -99h-4z" />
    <glyph glyph-name="zcaron" unicode="&#x17e;" horiz-adv-x="481" 
d="M62 401v49h372v-34l-312 -367h307v-49h-382v34l311 367h-296zM242 546l-130 132l26 31l106 -111l106 111l25 -31l-129 -132h-4z" />
    <glyph glyph-name="longs" unicode="&#x17f;" horiz-adv-x="254" 
d="M93 0v523c0 125 55 186 155 186c54 0 94 -18 117 -38l-20 -40c-21 17 -49 29 -89 29c-71 0 -111 -44 -111 -146v-514h-52z" />
    <glyph glyph-name="uni018F" unicode="&#x18f;" horiz-adv-x="778" 
d="M49 383h616c-12 169 -128 274 -303 274c-67 0 -134 -17 -187 -59l-22 41c52 46 135 70 221 70c211 0 350 -138 350 -356c0 -208 -131 -362 -341 -362s-345 162 -334 392zM381 43c173 0 277 122 286 288h-561c5 -159 108 -288 275 -288z" />
    <glyph glyph-name="florin" unicode="&#x192;" horiz-adv-x="589" 
d="M357 514l-12 -64h165v-49h-174l-77 -434c-20 -111 -59 -175 -159 -175c-39 0 -74 13 -92 28l16 42c16 -11 39 -21 65 -21c72 0 103 47 118 132l76 428h-156v49h165l13 73c24 126 70 186 170 186c54 0 94 -18 116 -38l-19 -40c-22 17 -49 29 -89 29
c-72 0 -107 -43 -126 -146z" />
    <glyph glyph-name="uni01DD" unicode="&#x1dd;" horiz-adv-x="524" 
d="M92 355l-17 40c41 43 113 64 173 64c142 0 228 -92 228 -234c0 -131 -79 -234 -222 -234c-121 0 -210 80 -210 203c0 16 2 37 4 49h370c-2 93 -66 167 -173 167c-61 0 -122 -23 -153 -55zM258 40c96 0 160 68 163 160h-323c0 -104 62 -160 160 -160z" />
    <glyph glyph-name="Scommaaccent" unicode="&#x218;" horiz-adv-x="546" 
d="M434 174c0 198 -362 126 -362 360c0 98 75 175 205 175c78 0 149 -28 188 -71l-30 -41c-40 40 -92 60 -156 60c-92 0 -149 -49 -149 -123c0 -196 362 -116 362 -359c0 -112 -99 -184 -223 -184c-83 0 -180 38 -215 101l33 38c41 -56 118 -87 181 -87c86 0 166 45 166 131
zM237 -71l45 16c20 -4 35 -21 35 -50c0 -57 -40 -85 -85 -97l-15 24c33 13 48 33 48 65c0 25 -12 37 -28 42z" />
    <glyph glyph-name="scommaaccent" unicode="&#x219;" horiz-adv-x="418" 
d="M312 118c0 113 -249 57 -249 222c0 72 59 119 145 119c63 0 115 -23 141 -50l-22 -39c-28 26 -72 43 -118 43c-56 0 -91 -33 -91 -72c0 -119 249 -63 249 -221c0 -89 -76 -129 -162 -129c-63 0 -133 33 -154 65l29 34c25 -32 86 -53 131 -53c52 0 101 26 101 81zM177 -71
l45 16c20 -4 35 -21 35 -50c0 -57 -40 -85 -85 -97l-15 24c33 13 48 33 48 65c0 25 -12 37 -28 42z" />
    <glyph glyph-name="Tcommaaccent" unicode="&#x21a;" horiz-adv-x="593" 
d="M10 648v52h573v-52h-259v-648h-55v648h-259zM261 -71l45 16c20 -4 35 -21 35 -50c0 -57 -40 -85 -85 -97l-15 24c33 13 48 33 48 65c0 25 -12 37 -28 42z" />
    <glyph glyph-name="tcommaaccent" unicode="&#x21b;" horiz-adv-x="348" 
d="M69 171v404h52v-125h181v-49h-181v-222c0 -88 29 -136 101 -136c30 0 56 12 72 24l17 -41c-21 -17 -58 -32 -101 -32c-100 0 -141 62 -141 177zM153 -71l45 16c20 -4 35 -21 35 -50c0 -57 -40 -85 -85 -97l-15 24c33 13 48 33 48 65c0 25 -12 37 -28 42z" />
    <glyph glyph-name="uni0237" unicode="&#x237;" horiz-adv-x="260" 
d="M159 450v-483c0 -110 -41 -175 -141 -175c-39 0 -73 13 -92 28l16 42c16 -11 40 -21 65 -21c72 0 100 48 100 130v479h52z" />
    <glyph glyph-name="uni0259" unicode="&#x259;" horiz-adv-x="524" 
d="M92 355l-17 40c41 43 113 64 173 64c142 0 228 -92 228 -234c0 -131 -79 -234 -222 -234c-121 0 -210 80 -210 203c0 16 2 37 4 49h370c-2 93 -66 167 -173 167c-61 0 -122 -23 -153 -55zM258 40c96 0 160 68 163 160h-323c0 -104 62 -160 160 -160z" />
    <glyph glyph-name="afii57929" unicode="&#x2bc;" horiz-adv-x="218" 
d="M89 631l43 28c14 -16 26 -42 26 -73c0 -69 -34 -110 -74 -132l-24 25c32 19 49 55 49 96c0 26 -10 46 -20 56z" />
    <glyph glyph-name="circumflex" unicode="&#x2c6;" horiz-adv-x="383" 
d="M195 707l128 -131l-25 -32l-105 105l-107 -104l-26 31l131 131h4z" />
    <glyph glyph-name="caron" unicode="&#x2c7;" horiz-adv-x="383" 
d="M190 546l-130 132l26 31l106 -111l106 111l25 -31l-129 -132h-4z" />
    <glyph glyph-name="breve" unicode="&#x2d8;" horiz-adv-x="399" 
d="M60 654l24 27c21 -25 56 -65 118 -65c54 0 92 33 117 64l20 -26c-27 -38 -68 -81 -139 -81c-79 0 -123 54 -140 81z" />
    <glyph glyph-name="dotaccent" unicode="&#x2d9;" horiz-adv-x="191" 
d="M60 625c0 20 17 33 37 33c17 0 34 -13 34 -33c0 -23 -17 -37 -34 -37c-20 0 -37 14 -37 37z" />
    <glyph glyph-name="ring" unicode="&#x2da;" horiz-adv-x="332" 
d="M60 614c0 57 46 104 105 104c60 0 107 -47 107 -104s-47 -103 -107 -103c-59 0 -105 46 -105 103zM95 614c0 -40 31 -72 71 -72s71 32 71 72s-31 73 -71 73s-71 -33 -71 -73z" />
    <glyph glyph-name="ogonek" unicode="&#x2db;" horiz-adv-x="306" 
d="M230 -148l16 -33c-17 -11 -46 -19 -73 -19c-50 0 -113 21 -113 91c0 79 95 123 179 123v-14c-64 0 -127 -40 -127 -93c0 -52 47 -64 73 -64c12 0 28 1 45 9z" />
    <glyph glyph-name="tilde" unicode="&#x2dc;" horiz-adv-x="425" 
d="M83 573l-23 25c38 38 72 52 101 52c47 0 70 -46 111 -46c23 0 43 11 74 38l19 -27c-37 -38 -70 -54 -98 -54c-44 0 -67 46 -112 46c-20 0 -44 -12 -72 -34z" />
    <glyph glyph-name="hungarumlaut" unicode="&#x2dd;" horiz-adv-x="420" 
d="M360 683l-119 -141l-32 23l113 147zM204 688l-112 -146l-32 23l106 151z" />
    <glyph glyph-name="gravecomb" unicode="&#x300;" horiz-adv-x="0" 
d="M-263 542l-116 142l41 31l108 -150z" />
    <glyph glyph-name="acutecomb" unicode="&#x301;" horiz-adv-x="0" 
d="M-167 685l-116 -143l-32 23l108 151z" />
    <glyph glyph-name="uni0394" unicode="&#x394;" horiz-adv-x="714" 
d="M34 0l303 708h33l310 -708h-646zM352 614l-238 -562h483z" />
    <glyph glyph-name="uni0394" unicode="&#x2206;" horiz-adv-x="714" 
d="M34 0l303 708h33l310 -708h-646zM352 614l-238 -562h483z" />
    <glyph glyph-name="uni03A9" unicode="&#x3a9;" horiz-adv-x="811" 
d="M80 0v52h179c-110 37 -201 158 -201 310c0 203 152 347 348 347c197 0 348 -144 348 -347c0 -156 -92 -273 -202 -310h179v-52h-264v52c136 32 229 156 229 302c0 168 -120 303 -290 303c-172 0 -290 -135 -290 -304c0 -141 91 -270 228 -301v-52h-264z" />
    <glyph glyph-name="uni03A9" unicode="&#x2126;" horiz-adv-x="811" 
d="M80 0v52h179c-110 37 -201 158 -201 310c0 203 152 347 348 347c197 0 348 -144 348 -347c0 -156 -92 -273 -202 -310h179v-52h-264v52c136 32 229 156 229 302c0 168 -120 303 -290 303c-172 0 -290 -135 -290 -304c0 -141 91 -270 228 -301v-52h-264z" />
    <glyph glyph-name="pi" unicode="&#x3c0;" horiz-adv-x="641" 
d="M50 401v49h537v-49h-100v-271c0 -61 10 -87 48 -87c20 0 44 11 59 22l13 -41c-21 -16 -54 -30 -91 -30c-54 0 -81 33 -81 108v299h-231v-73c0 -270 -63 -332 -166 -332l-4 51c68 -1 117 54 118 268l1 86h-103z" />
    <glyph glyph-name="afii10023" unicode="&#x401;" horiz-adv-x="575" 
d="M111 0v700h387v-52h-332v-267h302v-52h-302v-277h342v-52h-397zM155 804c0 20 17 32 38 32c18 0 36 -12 36 -32c0 -22 -18 -34 -36 -34c-21 0 -38 12 -38 34zM388 804c0 20 18 32 39 32c18 0 35 -12 35 -32c0 -22 -17 -34 -35 -34c-21 0 -39 12 -39 34z" />
    <glyph glyph-name="afii10051" unicode="&#x402;" horiz-adv-x="760" 
d="M706 204c0 -153 -71 -213 -169 -213c-42 0 -83 20 -95 32l20 43c16 -12 43 -23 69 -23c71 0 120 46 120 160c0 119 -58 168 -163 168c-81 0 -127 -34 -164 -57v-314h-55v648h-259v52h573v-52h-259v-282c38 26 91 57 175 57c118 0 207 -56 207 -219z" />
    <glyph glyph-name="afii10052" unicode="&#x403;" horiz-adv-x="503" 
d="M111 0v700h386v-52h-331v-648h-55zM461 824l-182 -86l-16 31l179 99z" />
    <glyph glyph-name="afii10053" unicode="&#x404;" horiz-adv-x="680" 
d="M481 383v-52h-372c9 -179 137 -288 309 -288c78 0 140 24 198 66l23 -45c-62 -47 -135 -73 -226 -73c-214 0 -359 141 -359 359c0 208 139 359 350 359c86 0 169 -24 221 -70l-25 -41c-53 42 -120 59 -187 59c-175 0 -289 -111 -303 -274h371z" />
    <glyph glyph-name="afii10054" unicode="&#x405;" horiz-adv-x="546" 
d="M434 174c0 198 -362 126 -362 360c0 98 75 175 205 175c78 0 149 -28 188 -71l-30 -41c-40 40 -92 60 -156 60c-92 0 -149 -49 -149 -123c0 -196 362 -116 362 -359c0 -112 -99 -184 -223 -184c-83 0 -180 38 -215 101l33 38c41 -56 118 -87 181 -87c86 0 166 45 166 131
z" />
    <glyph glyph-name="afii10055" unicode="&#x406;" horiz-adv-x="325" 
d="M135 0v700h55v-700h-55z" />
    <glyph glyph-name="afii10056" unicode="&#x407;" horiz-adv-x="325" 
d="M56 804c0 19 16 32 34 32c17 0 33 -13 33 -32c0 -21 -16 -34 -33 -34c-18 0 -34 13 -34 34zM203 804c0 19 16 32 35 32c16 0 32 -13 32 -32c0 -21 -16 -34 -32 -34c-19 0 -35 13 -35 34zM135 0v700h55v-700h-55z" />
    <glyph glyph-name="afii10057" unicode="&#x408;" horiz-adv-x="361" 
d="M250 700v-546c0 -99 -36 -163 -140 -163c-42 0 -78 16 -96 32l20 43c16 -12 43 -23 69 -23c75 0 92 52 92 119v538h55z" />
    <glyph glyph-name="afii10058" unicode="&#x409;" horiz-adv-x="1033" 
d="M558 0v648h-294l-12 -132c-40 -475 -136 -524 -225 -516l1 55c47 -3 140 23 174 505l10 140h401v-276c43 3 79 5 106 5c177 0 260 -80 260 -208c0 -146 -104 -223 -273 -223c-56 0 -107 2 -148 2zM716 377c-28 0 -62 -1 -103 -6v-318c30 -1 60 -3 99 -3
c135 0 209 58 209 170c0 100 -71 157 -205 157z" />
    <glyph glyph-name="afii10059" unicode="&#x40a;" horiz-adv-x="1068" 
d="M111 0v700h55v-292h427v292h55v-289c43 3 79 5 106 5c177 0 260 -77 260 -202c0 -142 -104 -216 -273 -216c-45 0 -86 2 -122 2h-26v356h-427v-356h-55zM648 358v-305c31 -1 60 -3 99 -3c135 0 209 55 209 164c0 96 -70 150 -205 150c-27 0 -61 -1 -103 -6z" />
    <glyph glyph-name="afii10060" unicode="&#x40b;" horiz-adv-x="760" 
d="M10 648v52h573v-52h-259v-283c37 27 99 58 182 58c114 0 200 -64 200 -224v-199h-55v187c0 128 -60 184 -159 184c-78 0 -130 -33 -168 -57v-314h-55v648h-259z" />
    <glyph glyph-name="afii10061" unicode="&#x40c;" horiz-adv-x="637" 
d="M595 700l-331 -331l345 -369h-71l-339 365l329 335h67zM111 0v700h55v-700h-55zM479 824l-182 -86l-16 31l179 99z" />
    <glyph glyph-name="afii10062" unicode="&#x40e;" horiz-adv-x="652" 
d="M635 700l-244 -542c-48 -107 -93 -158 -162 -158c-27 0 -58 8 -77 23l20 47c19 -13 36 -19 56 -19c46 0 76 40 99 88l13 28l-323 533h62l288 -478l212 478h56zM161 852h52c21 -42 63 -71 125 -71c57 0 107 27 121 71h52c-13 -66 -89 -111 -173 -111
c-93 0 -160 47 -177 111z" />
    <glyph glyph-name="afii10145" unicode="&#x40f;" horiz-adv-x="756" 
d="M111 0v700h55v-648h424v648h55v-700h-242v-157h-52v157h-240z" />
    <glyph glyph-name="afii10017" unicode="&#x410;" horiz-adv-x="697" 
d="M21 0l305 706h45l305 -706h-59l-102 238h-336l-102 -238h-56zM347 630l-146 -340h291z" />
    <glyph glyph-name="afii10018" unicode="&#x411;" horiz-adv-x="610" 
d="M111 0v700h386v-52h-331v-237c41 4 89 6 118 6c166 0 252 -78 252 -202c0 -144 -102 -218 -268 -218c-62 0 -116 3 -157 3zM282 365c-30 0 -73 -1 -116 -6v-307c33 -1 70 -3 110 -3c136 0 205 59 205 163c0 93 -65 153 -199 153z" />
    <glyph glyph-name="afii10019" unicode="&#x412;" horiz-adv-x="617" 
d="M111 1v698c39 1 123 4 184 4c167 0 221 -76 221 -173c0 -93 -63 -147 -136 -164v-2c101 -12 163 -70 163 -168c0 -140 -107 -199 -249 -199c-60 0 -142 2 -183 4zM299 333h-133v-280c28 -1 86 -4 130 -4c120 0 192 49 192 150c0 86 -68 134 -189 134zM293 651
c-43 0 -99 -2 -127 -3v-266h136c87 0 159 51 159 137c0 85 -53 132 -168 132z" />
    <glyph glyph-name="afii10020" unicode="&#x413;" horiz-adv-x="503" 
d="M111 0v700h386v-52h-331v-648h-55z" />
    <glyph glyph-name="afii10021" unicode="&#x414;" horiz-adv-x="743" 
d="M17 -134v186h75c29 37 104 190 121 508l7 140h394v-648h95v-186h-52v134h-588v-134h-52zM265 520c-19 -289 -85 -436 -112 -468h406v596h-286z" />
    <glyph glyph-name="afii10022" unicode="&#x415;" horiz-adv-x="575" 
d="M111 0v700h387v-52h-332v-267h302v-52h-302v-277h342v-52h-397z" />
    <glyph glyph-name="afii10024" unicode="&#x416;" horiz-adv-x="918" 
d="M879 700l-299 -334l310 -366h-65l-306 365l295 335h65zM431 0v700h55v-700h-55zM338 365l-299 335h65l295 -335l-306 -365h-65z" />
    <glyph glyph-name="afii10025" unicode="&#x417;" horiz-adv-x="573" 
d="M265 -9c-93 0 -184 47 -221 103l31 37c47 -56 128 -88 186 -88c109 0 183 59 183 158c0 80 -57 131 -149 131h-87v52h81c64 0 128 59 128 140c0 89 -64 133 -147 133c-78 0 -130 -30 -174 -80l-32 35c47 60 124 97 210 97c119 0 198 -66 198 -181
c0 -63 -36 -133 -106 -165v-3c86 -12 133 -84 133 -164c0 -129 -105 -205 -234 -205z" />
    <glyph glyph-name="afii10026" unicode="&#x418;" horiz-adv-x="797" 
d="M160 0h-49v700h55v-610l471 610h49v-700h-55v610z" />
    <glyph glyph-name="afii10027" unicode="&#x419;" horiz-adv-x="797" 
d="M160 0h-49v700h55v-610l471 610h49v-700h-55v610zM224 852h52c21 -42 63 -71 125 -71c57 0 107 27 121 71h52c-13 -66 -89 -111 -173 -111c-93 0 -160 47 -177 111z" />
    <glyph glyph-name="afii10028" unicode="&#x41a;" horiz-adv-x="637" 
d="M595 700l-331 -331l345 -369h-71l-339 365l329 335h67zM111 0v700h55v-700h-55z" />
    <glyph glyph-name="afii10029" unicode="&#x41b;" horiz-adv-x="724" 
d="M558 0v648h-294l-12 -132c-40 -475 -136 -524 -225 -516l1 55c47 -3 140 23 174 505l10 140h401v-700h-55z" />
    <glyph glyph-name="afii10030" unicode="&#x41c;" horiz-adv-x="884" 
d="M111 0v700h56l282 -384l271 384h53v-700h-55v614l-269 -378h-9l-274 375v-611h-55z" />
    <glyph glyph-name="afii10031" unicode="&#x41d;" horiz-adv-x="769" 
d="M603 0v331h-437v-331h-55v700h55v-317h437v317h55v-700h-55z" />
    <glyph glyph-name="afii10032" unicode="&#x41e;" horiz-adv-x="810" 
d="M54 350c0 203 149 359 351 359c199 0 351 -150 351 -359c0 -206 -152 -359 -351 -359s-351 150 -351 359zM112 350c0 -175 128 -307 293 -307c171 0 293 133 293 307c0 177 -128 307 -293 307c-166 0 -293 -130 -293 -307z" />
    <glyph glyph-name="afii10033" unicode="&#x41f;" horiz-adv-x="766" 
d="M600 0v648h-434v-648h-55v700h544v-700h-55z" />
    <glyph glyph-name="afii10034" unicode="&#x420;" horiz-adv-x="585" 
d="M166 0h-55v700c39 0 131 2 171 2c194 0 249 -107 249 -211c0 -109 -75 -214 -249 -214c-33 0 -76 1 -116 4v-281zM287 650c-31 0 -88 -1 -121 -2v-314c39 -3 74 -5 114 -5c127 0 193 67 193 163c0 91 -54 158 -186 158z" />
    <glyph glyph-name="afii10035" unicode="&#x421;" horiz-adv-x="656" 
d="M600 109l22 -41c-48 -48 -134 -77 -217 -77c-208 0 -351 141 -351 359c0 201 132 359 343 359c88 0 159 -22 212 -66l-26 -41c-50 38 -109 55 -185 55c-170 0 -286 -130 -286 -307c0 -184 122 -307 297 -307c75 0 142 26 191 66z" />
    <glyph glyph-name="afii10036" unicode="&#x422;" horiz-adv-x="593" 
d="M10 648v52h573v-52h-259v-648h-55v648h-259z" />
    <glyph glyph-name="afii10037" unicode="&#x423;" horiz-adv-x="652" 
d="M635 700l-244 -542c-48 -107 -93 -158 -162 -158c-27 0 -58 8 -77 23l20 47c19 -13 36 -19 56 -19c46 0 76 40 99 88l13 28l-323 533h62l288 -478l212 478h56z" />
    <glyph glyph-name="afii10038" unicode="&#x424;" horiz-adv-x="830" 
d="M386 -8v91h-5c-199 0 -337 100 -337 277s136 277 341 277h1v71h55v-71h2c209 0 343 -102 343 -277c0 -176 -139 -277 -338 -277h-7v-91h-55zM445 586h-4v-452h7c165 0 280 76 280 226c0 145 -110 226 -283 226zM102 360c0 -148 115 -226 280 -226h4v452h-2
c-170 0 -282 -82 -282 -226z" />
    <glyph glyph-name="afii10039" unicode="&#x425;" horiz-adv-x="660" 
d="M623 700l-257 -344l266 -356h-66l-236 314l-237 -314h-65l267 356l-256 344h65l227 -302l226 302h66z" />
    <glyph glyph-name="afii10040" unicode="&#x426;" horiz-adv-x="779" 
d="M111 0v700h55v-648h429v648h55v-648h95v-186h-52v134h-582z" />
    <glyph glyph-name="afii10041" unicode="&#x427;" horiz-adv-x="636" 
d="M525 700v-700h-55v321c-39 -27 -114 -59 -199 -59c-114 0 -208 63 -208 224v214h55v-202c0 -128 68 -184 167 -184c79 0 145 34 185 59v327h55z" />
    <glyph glyph-name="afii10042" unicode="&#x428;" horiz-adv-x="993" 
d="M111 0v700h55v-648h303v648h55v-648h303v648h55v-700h-771z" />
    <glyph glyph-name="afii10043" unicode="&#x429;" horiz-adv-x="1011" 
d="M111 0v700h55v-648h303v648h55v-648h303v648h55v-648h95v-186h-52v134h-814z" />
    <glyph glyph-name="afii10044" unicode="&#x42a;" horiz-adv-x="666" 
d="M3 648v52h233v-276c43 3 86 5 113 5c180 0 263 -80 263 -208c0 -145 -104 -223 -276 -223c-56 0 -114 2 -155 2v648h-178zM346 377c-28 0 -69 -1 -110 -6v-318c30 -1 67 -3 106 -3c135 0 212 57 212 170c0 101 -73 157 -208 157z" />
    <glyph glyph-name="afii10045" unicode="&#x42b;" horiz-adv-x="829" 
d="M663 0v700h55v-700h-55zM269 377c-27 0 -61 -1 -103 -6v-318c31 -1 60 -3 99 -3c135 0 209 58 209 170c0 100 -70 157 -205 157zM166 700v-276c43 3 79 5 106 5c177 0 260 -80 260 -208c0 -145 -104 -223 -273 -223c-56 0 -107 2 -148 2v700h55z" />
    <glyph glyph-name="afii10046" unicode="&#x42c;" horiz-adv-x="596" 
d="M276 377c-27 0 -68 -1 -110 -6v-318c31 -1 67 -3 106 -3c135 0 212 57 212 170c0 101 -73 157 -208 157zM166 700v-276c43 3 86 5 113 5c180 0 263 -80 263 -208c0 -145 -104 -223 -276 -223c-56 0 -114 2 -155 2v700h55z" />
    <glyph glyph-name="afii10047" unicode="&#x42d;" horiz-adv-x="680" 
d="M198 331v52h372c-13 170 -130 274 -306 274c-67 0 -134 -17 -187 -59l-23 41c52 46 136 70 222 70c210 0 350 -138 350 -356c0 -208 -138 -362 -353 -362c-90 0 -170 26 -232 73l25 45c59 -42 128 -66 206 -66c171 0 289 117 298 288h-372z" />
    <glyph glyph-name="afii10048" unicode="&#x42e;" horiz-adv-x="1076" 
d="M111 0v700h55v-317h178c14 186 149 326 337 326c199 0 341 -150 341 -359c0 -206 -142 -359 -341 -359c-187 0 -329 141 -338 340h-177v-331h-55zM401 350c0 -175 119 -307 281 -307c172 0 282 133 282 307c0 177 -116 307 -282 307c-163 0 -281 -130 -281 -307z" />
    <glyph glyph-name="afii10049" unicode="&#x42f;" horiz-adv-x="615" 
d="M449 0v274h-156l-199 -274h-63l208 282c-78 26 -152 96 -152 197c0 124 84 224 262 224c48 0 114 -3 155 -3v-700h-55zM286 326h163v322c-28 1 -72 3 -110 3c-131 0 -194 -76 -194 -169c0 -83 70 -145 141 -156z" />
    <glyph glyph-name="afii10065" unicode="&#x430;" horiz-adv-x="459" 
d="M93 375l-14 43c42 26 90 41 143 41c125 0 167 -66 167 -180v-279h-52v69c-28 -38 -72 -75 -154 -75c-83 0 -139 52 -139 134c0 90 74 140 171 140c36 0 86 -8 122 -34c0 107 -6 176 -118 176c-53 0 -86 -13 -126 -35zM199 43c76 0 113 38 138 71v75
c-33 24 -71 36 -117 36c-59 0 -121 -28 -121 -94c0 -56 44 -88 100 -88z" />
    <glyph glyph-name="afii10066" unicode="&#x431;" horiz-adv-x="555" 
d="M435 710l29 -39c-51 -76 -129 -42 -237 -90c-100 -43 -123 -160 -129 -256h2c31 75 111 122 194 122c133 0 214 -91 214 -226c0 -126 -96 -230 -228 -230c-141 0 -234 104 -234 277c0 120 17 302 165 363c111 47 178 14 224 79zM101 259c0 -139 76 -219 177 -219
s175 80 175 179c0 105 -62 179 -171 179c-103 0 -167 -72 -181 -139z" />
    <glyph glyph-name="afii10067" unicode="&#x432;" horiz-adv-x="481" 
d="M79 0v450c39 0 84 3 145 3c122 0 186 -34 186 -116c0 -49 -32 -94 -91 -103v-2c77 -12 108 -49 108 -108c0 -82 -67 -127 -201 -127c-56 0 -106 3 -147 3zM239 207h-108v-159c29 -1 60 -2 101 -2c91 0 140 26 140 83c0 53 -43 78 -133 78zM230 404c-43 0 -74 -1 -99 -2
v-152h119c65 0 105 31 105 79c0 60 -57 75 -125 75z" />
    <glyph glyph-name="afii10068" unicode="&#x433;" horiz-adv-x="353" 
d="M79 0v450h271v-49h-219v-401h-52z" />
    <glyph glyph-name="afii10069" unicode="&#x434;" horiz-adv-x="525" 
d="M10 -114v163h56c28 36 64 132 73 274l7 127h287v-401h75v-163h-49v114h-400v-114h-49zM189 303c-10 -130 -45 -225 -68 -254h260v352h-186z" />
    <glyph glyph-name="afii10070" unicode="&#x435;" horiz-adv-x="524" 
d="M435 95l17 -40c-41 -43 -106 -64 -166 -64c-142 0 -239 92 -239 234c0 131 80 234 228 234c116 0 204 -80 204 -203c0 -17 -1 -30 -3 -42h-371c4 -108 76 -174 184 -174c61 0 115 23 146 55zM270 410c-100 0 -159 -65 -168 -153h324c-2 95 -62 153 -156 153z" />
    <glyph glyph-name="afii10072" unicode="&#x436;" horiz-adv-x="655" 
d="M622 450l-180 -216l192 -234h-63l-187 234l175 216h63zM300 0v450h52v-450h-52zM210 234l-180 216h64l174 -216l-184 -234h-63z" />
    <glyph glyph-name="afii10073" unicode="&#x437;" horiz-adv-x="458" 
d="M218 -9c-60 0 -147 24 -177 60l27 40c38 -35 100 -51 142 -51c82 0 139 34 139 92c0 47 -40 75 -104 75h-76v43h71c51 0 92 36 92 82c0 51 -45 78 -114 78c-65 0 -108 -23 -141 -50l-21 40c37 38 102 59 169 59c105 0 162 -45 162 -118c0 -44 -23 -87 -81 -108v-2
c65 -6 98 -54 98 -106c0 -84 -78 -134 -186 -134z" />
    <glyph glyph-name="afii10074" unicode="&#x438;" horiz-adv-x="562" 
d="M131 0h-52v450h52v-375l300 375h52v-450h-52v375z" />
    <glyph glyph-name="afii10075" unicode="&#x439;" horiz-adv-x="562" 
d="M131 0h-52v450h52v-375l300 375h52v-450h-52v375zM148 684h47c0 -49 37 -88 93 -88c53 0 89 39 89 88h47c0 -73 -55 -128 -136 -128c-89 0 -140 55 -140 128z" />
    <glyph glyph-name="afii10076" unicode="&#x43a;" horiz-adv-x="484" 
d="M446 450l-222 -215l240 -235h-70l-233 232l218 218h67zM79 0v450h52v-450h-52z" />
    <glyph glyph-name="afii10077" unicode="&#x43b;" horiz-adv-x="527" 
d="M396 0v398h-190l-6 -98c-19 -265 -92 -304 -162 -304l-4 51c30 -1 102 27 116 263l7 140h291v-450h-52z" />
    <glyph glyph-name="afii10078" unicode="&#x43c;" horiz-adv-x="622" 
d="M79 0v450h49l187 -251l180 251h47v-450h-52v371l-175 -243h-3l-181 243v-371h-52z" />
    <glyph glyph-name="afii10079" unicode="&#x43d;" horiz-adv-x="554" 
d="M423 0v204h-292v-204h-52v450h52v-197h292v197h52v-450h-52z" />
    <glyph glyph-name="afii10080" unicode="&#x43e;" horiz-adv-x="567" 
d="M47 225c0 135 96 234 236 234s236 -99 236 -234s-96 -234 -236 -234s-236 99 -236 234zM102 225c0 -108 76 -185 181 -185c106 0 181 76 181 185c0 108 -75 185 -181 185c-104 0 -181 -76 -181 -185z" />
    <glyph glyph-name="afii10081" unicode="&#x43f;" horiz-adv-x="549" 
d="M418 0v401h-287v-401h-52v450h391v-450h-52z" />
    <glyph glyph-name="afii10082" unicode="&#x440;" horiz-adv-x="554" 
d="M79 -200v650h52v-60c34 40 100 69 165 69c130 0 210 -94 210 -227c0 -137 -91 -241 -231 -241c-55 0 -107 11 -144 38v-229h-52zM282 410c-63 0 -122 -33 -151 -70v-259c47 -31 92 -41 140 -41c109 0 180 79 180 189c0 107 -61 181 -169 181z" />
    <glyph glyph-name="afii10083" unicode="&#x441;" horiz-adv-x="490" 
d="M429 102l26 -38c-38 -48 -104 -73 -170 -73c-139 0 -238 92 -238 234c0 131 96 234 224 234c70 0 132 -15 175 -56l-25 -42c-40 36 -90 49 -142 49c-95 0 -177 -78 -177 -185c0 -114 82 -185 187 -185c58 0 109 26 140 62z" />
    <glyph glyph-name="afii10084" unicode="&#x442;" horiz-adv-x="436" 
d="M13 398v52h410v-52h-179v-398h-52v398h-179z" />
    <glyph glyph-name="afii10085" unicode="&#x443;" horiz-adv-x="481" 
d="M467 450l-182 -450c-66 -161 -108 -200 -169 -200c-29 0 -53 9 -77 23l17 40c17 -8 35 -15 53 -15c46 0 79 37 117 128l10 24l-222 450h62l154 -318l32 -70c7 23 16 47 25 72l121 316h59z" />
    <glyph glyph-name="afii10086" unicode="&#x444;" horiz-adv-x="665" 
d="M306 -200v191h-15c-153 0 -244 100 -244 234c0 122 90 234 243 234h16v241h52v-241h17c146 0 242 -102 242 -234c0 -134 -88 -234 -242 -234h-17v-191h-52zM102 225c0 -107 71 -185 192 -185h12v370h-17c-118 0 -187 -83 -187 -185zM375 410h-17v-370h13
c122 0 191 77 191 185c0 97 -68 185 -187 185z" />
    <glyph glyph-name="afii10087" unicode="&#x445;" horiz-adv-x="495" 
d="M454 450l-169 -218l179 -232h-64l-154 199l-154 -199h-61l179 230l-169 220h64l143 -186l145 186h61z" />
    <glyph glyph-name="afii10088" unicode="&#x446;" horiz-adv-x="559" 
d="M79 0v450h52v-401h284v401h52v-401h75v-163h-49v114h-414z" />
    <glyph glyph-name="afii10089" unicode="&#x447;" horiz-adv-x="475" 
d="M396 450v-450h-52v190c-31 -21 -79 -38 -135 -38c-102 0 -158 51 -158 169v129h55v-125c0 -84 43 -124 117 -124c55 0 98 19 121 36v213h52z" />
    <glyph glyph-name="afii10090" unicode="&#x448;" horiz-adv-x="705" 
d="M79 0v450h52v-401h195v401h52v-401h195v401h52v-450h-546z" />
    <glyph glyph-name="afii10091" unicode="&#x449;" horiz-adv-x="717" 
d="M79 0v450h52v-401h195v401h52v-401h195v401h52v-401h75v-163h-49v114h-572z" />
    <glyph glyph-name="afii10092" unicode="&#x44a;" horiz-adv-x="500" 
d="M3 401v49h191v-151h87c138 0 178 -68 178 -148c0 -79 -45 -151 -185 -151h-132v401h-139zM272 250h-78v-201h77c98 0 133 37 133 101c0 63 -37 100 -132 100z" />
    <glyph glyph-name="afii10093" unicode="&#x44b;" horiz-adv-x="621" 
d="M79 0v450h52v-151h78c138 0 178 -68 178 -148c0 -79 -44 -151 -184 -151h-124zM200 250h-69v-201h68c99 0 133 37 133 101c0 63 -36 100 -132 100zM490 0v450h52v-450h-52z" />
    <glyph glyph-name="afii10094" unicode="&#x44c;" horiz-adv-x="437" 
d="M79 0v450h52v-151h87c138 0 178 -68 178 -148c0 -79 -45 -151 -185 -151h-132zM209 250h-78v-201h77c98 0 133 37 133 101c0 63 -37 100 -132 100z" />
    <glyph glyph-name="afii10095" unicode="&#x44d;" horiz-adv-x="491" 
d="M152 208v43h237c-10 103 -84 159 -183 159c-60 0 -112 -22 -146 -56l-23 39c40 43 109 66 168 66c139 0 238 -91 238 -234c0 -131 -96 -234 -224 -234c-70 0 -134 15 -177 55l25 39c36 -32 93 -45 148 -45c96 0 168 66 175 168h-238z" />
    <glyph glyph-name="afii10096" unicode="&#x44e;" horiz-adv-x="750" 
d="M79 0v450h55v-194h114c13 119 100 203 225 203c136 0 229 -99 229 -234s-94 -234 -229 -234c-128 0 -217 89 -226 213h-113v-204h-55zM305 225c0 -109 71 -182 170 -182c100 0 169 74 169 182c0 107 -68 182 -169 182c-100 0 -170 -74 -170 -182z" />
    <glyph glyph-name="afii10097" unicode="&#x44f;" horiz-adv-x="477" 
d="M264 450h134v-450h-52v168h-112l-129 -168h-64l142 180c-53 9 -108 55 -108 128c0 74 47 142 189 142zM130 307c0 -57 55 -90 97 -90h119v184h-91c-91 0 -125 -42 -125 -94z" />
    <glyph glyph-name="afii10071" unicode="&#x451;" horiz-adv-x="524" 
d="M435 95l17 -40c-41 -43 -106 -64 -166 -64c-142 0 -239 92 -239 234c0 131 80 234 228 234c116 0 204 -80 204 -203c0 -17 -1 -30 -3 -42h-371c4 -108 76 -174 184 -174c61 0 115 23 146 55zM270 410c-100 0 -159 -65 -168 -153h324c-2 95 -62 153 -156 153zM131 618
c0 20 15 33 34 33c15 0 31 -13 31 -33c0 -21 -16 -35 -31 -35c-19 0 -34 14 -34 35zM339 618c0 20 15 33 34 33c15 0 31 -13 31 -33c0 -21 -16 -35 -31 -35c-19 0 -34 14 -34 35z" />
    <glyph glyph-name="afii10099" unicode="&#x452;" horiz-adv-x="601" 
d="M3 482v43h140v175h52v-175h198v-43h-198v-178c36 39 100 68 161 68c123 0 189 -61 189 -201c0 -148 -58 -300 -178 -371h-59c137 87 185 233 185 358c0 112 -49 165 -148 165c-62 0 -121 -33 -150 -69v-254h-52v482h-140z" />
    <glyph glyph-name="afii10100" unicode="&#x453;" horiz-adv-x="353" 
d="M79 0v450h271v-49h-219v-401h-52zM333 685l-116 -143l-32 23l108 151z" />
    <glyph glyph-name="afii10101" unicode="&#x454;" horiz-adv-x="490" 
d="M338 251v-43h-239c8 -109 88 -168 189 -168c46 0 102 13 138 45l22 -39c-43 -40 -107 -55 -169 -55c-136 0 -232 97 -232 234c0 143 99 234 238 234c59 0 128 -23 168 -66l-23 -39c-34 34 -86 56 -146 56c-97 0 -173 -56 -184 -159h238z" />
    <glyph glyph-name="afii10102" unicode="&#x455;" horiz-adv-x="418" 
d="M312 118c0 113 -249 57 -249 222c0 72 59 119 145 119c63 0 115 -23 141 -50l-22 -39c-28 26 -72 43 -118 43c-56 0 -91 -33 -91 -72c0 -119 249 -63 249 -221c0 -89 -76 -129 -162 -129c-63 0 -133 33 -154 65l29 34c25 -32 86 -53 131 -53c52 0 101 26 101 81z" />
    <glyph glyph-name="afii10103" unicode="&#x456;" horiz-adv-x="261" 
d="M104 0v450h52v-450h-52zM95 625c0 20 17 33 37 33c17 0 34 -13 34 -33c0 -23 -17 -37 -34 -37c-20 0 -37 14 -37 37z" />
    <glyph glyph-name="afii10104" unicode="&#x457;" horiz-adv-x="276" 
d="M44 617c0 18 14 30 31 30c14 0 29 -12 29 -30c0 -19 -15 -31 -29 -31c-17 0 -31 12 -31 31zM173 617c0 18 14 30 31 30c15 0 29 -12 29 -30c0 -19 -14 -31 -29 -31c-17 0 -31 12 -31 31zM111 0v450h52v-450h-52z" />
    <glyph glyph-name="afii10105" unicode="&#x458;" horiz-adv-x="264" 
d="M159 450v-483c0 -110 -41 -175 -141 -175c-39 0 -73 13 -92 28l16 42c16 -11 40 -21 65 -21c72 0 100 48 100 130v479h52zM97 625c0 20 17 33 37 33c17 0 34 -13 34 -33c0 -23 -17 -37 -34 -37c-20 0 -37 14 -37 37z" />
    <glyph glyph-name="afii10106" unicode="&#x459;" horiz-adv-x="742" 
d="M396 0v398h-190l-6 -98c-19 -265 -92 -304 -162 -304l-4 51c30 -1 102 27 116 263l7 140h291v-151h75c138 0 178 -68 178 -148c0 -79 -45 -151 -185 -151h-120zM514 250h-66v-201h65c98 0 133 37 133 101c0 63 -37 100 -132 100z" />
    <glyph glyph-name="afii10107" unicode="&#x45a;" horiz-adv-x="769" 
d="M79 0v450h52v-183h292v183h52v-165h75c138 0 178 -61 178 -141c0 -79 -45 -144 -185 -144h-120v218h-292v-218h-52zM541 236h-66v-187h65c99 0 133 30 133 94c0 63 -37 93 -132 93z" />
    <glyph glyph-name="afii10108" unicode="&#x45b;" horiz-adv-x="601" 
d="M3 482v43h140v175h52v-175h198v-43h-198v-178c36 39 100 68 161 68c123 0 189 -61 189 -202v-170h-52v162c0 108 -49 161 -148 161c-62 0 -121 -33 -150 -69v-254h-52v482h-140z" />
    <glyph glyph-name="afii10109" unicode="&#x45c;" horiz-adv-x="484" 
d="M446 450l-222 -215l240 -235h-70l-233 232l218 218h67zM79 0v450h52v-450h-52zM351 685l-116 -143l-32 23l108 151z" />
    <glyph glyph-name="afii10110" unicode="&#x45e;" horiz-adv-x="481" 
d="M467 450l-182 -450c-66 -161 -108 -200 -169 -200c-29 0 -53 9 -77 23l17 40c17 -8 35 -15 53 -15c46 0 79 37 117 128l10 24l-222 450h62l154 -318l32 -70c7 23 16 47 25 72l121 316h59zM108 684h47c0 -49 37 -88 93 -88c53 0 89 39 89 88h47c0 -73 -55 -128 -136 -128
c-89 0 -140 55 -140 128z" />
    <glyph glyph-name="afii10193" unicode="&#x45f;" horiz-adv-x="539" 
d="M79 0v450h52v-401h277v401h52v-450h-166v-131h-49v131h-166z" />
    <glyph glyph-name="afii10146" unicode="&#x462;" horiz-adv-x="632" 
d="M202 700v-116h165v-52h-165v-120c43 3 86 5 113 5c180 0 263 -74 263 -202c0 -145 -104 -217 -276 -217c-56 0 -114 2 -155 2v532h-141v52h141v116h55zM312 365c-28 0 -69 -1 -110 -6v-306c30 -1 67 -3 106 -3c135 0 212 51 212 164c0 101 -73 151 -208 151z" />
    <glyph glyph-name="afii10194" unicode="&#x463;" horiz-adv-x="498" 
d="M3 401v49h139v250h52v-250h160v-49h-160v-120h85c138 0 178 -63 178 -143c0 -79 -45 -138 -185 -138h-130v401h-139zM279 232h-85v-183h84c94 0 124 36 124 92s-32 91 -123 91z" />
    <glyph glyph-name="afii10147" unicode="&#x472;" horiz-adv-x="810" 
d="M54 350c0 203 149 359 351 359c199 0 351 -150 351 -359c0 -206 -152 -359 -351 -359s-351 150 -351 359zM274 372c-60 0 -126 -39 -159 -69c20 -151 140 -260 290 -260c168 0 289 128 293 298c-41 -29 -101 -56 -154 -56c-115 0 -161 87 -270 87zM548 334
c54 0 115 32 147 61c-20 154 -140 262 -290 262c-164 0 -289 -126 -293 -299c43 34 105 63 164 63c115 0 164 -87 272 -87z" />
    <glyph glyph-name="afii10195" unicode="&#x473;" horiz-adv-x="567" 
d="M47 225c0 135 96 234 236 234s236 -99 236 -234s-96 -234 -236 -234s-236 99 -236 234zM185 238c-28 0 -55 -9 -83 -32c8 -98 82 -166 181 -166c91 0 160 57 177 142c-24 -14 -48 -20 -70 -20c-77 0 -137 76 -205 76zM395 211c21 0 45 7 69 24c-5 102 -79 175 -181 175
c-92 0 -163 -60 -178 -149c28 18 57 26 81 26c82 0 139 -76 209 -76z" />
    <glyph glyph-name="afii10148" unicode="&#x474;" horiz-adv-x="657" 
d="M535 508l-184 -514h-39l-301 706h59l263 -620l162 466c53 152 95 176 182 151l-9 -48c-67 25 -90 -22 -133 -141z" />
    <glyph glyph-name="afii10196" unicode="&#x475;" horiz-adv-x="479" 
d="M386 304l-121 -310h-36l-218 456h61l136 -283c14 -31 27 -63 40 -96l35 99l64 166c44 116 77 136 152 111l-9 -48c-48 25 -71 -18 -104 -95z" />
    <glyph glyph-name="afii10050" unicode="&#x490;" horiz-adv-x="503" 
d="M111 0v700h334v131h52v-183h-331v-648h-55z" />
    <glyph glyph-name="afii10098" unicode="&#x491;" horiz-adv-x="353" 
d="M79 0v450h222v111h49v-160h-219v-401h-52z" />
    <glyph glyph-name="uni1E9E" unicode="&#x1e9e;" horiz-adv-x="620" 
d="M505 164c0 97 -106 176 -219 256l136 199c-22 20 -61 38 -111 38c-81 0 -145 -47 -145 -159v-501h-55v504c0 144 88 208 203 208c68 0 127 -25 177 -76l-139 -196c105 -72 211 -163 211 -280c0 -101 -84 -166 -164 -166c-77 0 -118 29 -152 60l27 42
c31 -26 59 -50 113 -50c58 0 118 45 118 121z" />
    <glyph glyph-name="uni2010" unicode="&#x2010;" horiz-adv-x="399" 
d="M85 247v49h229v-49h-229z" />
    <glyph glyph-name="uni2011" unicode="&#x2011;" horiz-adv-x="399" 
d="M85 247v49h229v-49h-229z" />
    <glyph glyph-name="figuredash" unicode="&#x2012;" horiz-adv-x="590" 
d="M94 331v46h402v-46h-402z" />
    <glyph glyph-name="endash" unicode="&#x2013;" horiz-adv-x="590" 
d="M94 247v46h402v-46h-402z" />
    <glyph glyph-name="emdash" unicode="&#x2014;" horiz-adv-x="796" 
d="M94 247v46h608v-46h-608z" />
    <glyph glyph-name="afii00208" unicode="&#x2015;" horiz-adv-x="796" 
d="M94 247v46h608v-46h-608z" />
    <glyph glyph-name="quoteleft" unicode="&#x2018;" horiz-adv-x="238" 
d="M148 553l-43 -27c-14 15 -26 42 -26 72c0 69 34 110 74 132l24 -24c-32 -20 -49 -56 -49 -96c0 -27 10 -46 20 -57z" />
    <glyph glyph-name="quoteright" unicode="&#x2019;" horiz-adv-x="238" 
d="M90 701l43 28c14 -16 26 -42 26 -73c0 -69 -34 -110 -74 -132l-24 25c32 19 49 55 49 96c0 26 -10 46 -20 56z" />
    <glyph glyph-name="quotesinglbase" unicode="&#x201a;" horiz-adv-x="238" 
d="M90 36l43 28c14 -16 26 -42 26 -73c0 -69 -34 -110 -74 -132l-24 25c32 19 49 55 49 96c0 26 -10 46 -20 56z" />
    <glyph glyph-name="quotedblleft" unicode="&#x201c;" horiz-adv-x="369" 
d="M279 553l-43 -27c-14 15 -26 42 -26 72c0 69 34 110 74 132l24 -24c-32 -20 -49 -56 -49 -96c0 -27 10 -46 20 -57zM148 553l-43 -27c-14 15 -26 42 -26 72c0 69 34 110 74 132l24 -24c-32 -20 -49 -56 -49 -96c0 -27 10 -46 20 -57z" />
    <glyph glyph-name="quotedblright" unicode="&#x201d;" horiz-adv-x="369" 
d="M221 701l43 28c14 -16 26 -42 26 -73c0 -69 -34 -110 -74 -132l-24 25c32 19 49 55 49 96c0 26 -10 46 -20 56zM90 701l43 28c14 -16 26 -42 26 -73c0 -69 -34 -110 -74 -132l-24 25c32 19 49 55 49 96c0 26 -10 46 -20 56z" />
    <glyph glyph-name="quotedblbase" unicode="&#x201e;" horiz-adv-x="369" 
d="M221 36l43 28c14 -16 26 -42 26 -73c0 -69 -34 -110 -74 -132l-24 25c32 19 49 55 49 96c0 26 -10 46 -20 56zM90 36l43 28c14 -16 26 -42 26 -73c0 -69 -34 -110 -74 -132l-24 25c32 19 49 55 49 96c0 26 -10 46 -20 56z" />
    <glyph glyph-name="dagger" unicode="&#x2020;" horiz-adv-x="433" 
d="M40 422v46h152v232h49v-232h152v-46h-152v-522h-49v522h-152z" />
    <glyph glyph-name="daggerdbl" unicode="&#x2021;" horiz-adv-x="433" 
d="M40 422v46h152v232h49v-232h152v-46h-152v-214h152v-46h-152v-262h-49v262h-152v46h152v214h-152z" />
    <glyph glyph-name="bullet" unicode="&#x2022;" horiz-adv-x="186" 
d="M34 262c0 32 27 59 59 59s59 -27 59 -59s-27 -59 -59 -59s-59 27 -59 59z" />
    <glyph glyph-name="ellipsis" unicode="&#x2026;" horiz-adv-x="840" 
d="M682 38c0 18 16 36 40 36c21 0 36 -18 36 -36c0 -21 -15 -40 -36 -40c-24 0 -40 19 -40 40zM382 38c0 18 16 36 40 36c21 0 36 -18 36 -36c0 -21 -15 -40 -36 -40c-24 0 -40 19 -40 40zM82 38c0 18 16 36 40 36c21 0 36 -18 36 -36c0 -21 -15 -40 -36 -40
c-24 0 -40 19 -40 40z" />
    <glyph glyph-name="perthousand" unicode="&#x2030;" horiz-adv-x="1264" 
d="M869 159c0 96 74 162 172 162s172 -66 172 -162s-74 -163 -172 -163s-172 67 -172 163zM918 159c0 -73 59 -120 123 -120c66 0 123 47 123 120c0 72 -58 119 -123 119s-123 -47 -123 -119zM151 13l521 696l31 -22l-521 -696zM51 542c0 96 74 162 172 162
s172 -66 172 -162s-74 -163 -172 -163s-172 67 -172 163zM100 542c0 -73 59 -120 123 -120c66 0 123 47 123 120c0 72 -58 119 -123 119s-123 -47 -123 -119zM455 159c0 96 74 162 172 162s172 -66 172 -162s-74 -163 -172 -163s-172 67 -172 163zM504 159
c0 -73 59 -120 123 -120c66 0 123 47 123 120c0 72 -58 119 -123 119s-123 -47 -123 -119z" />
    <glyph glyph-name="guilsinglleft" unicode="&#x2039;" horiz-adv-x="332" 
d="M231 37l-180 211v4l182 209l34 -30l-156 -181l154 -181z" />
    <glyph glyph-name="guilsinglright" unicode="&#x203a;" horiz-adv-x="332" 
d="M281 248l-180 -211l-35 32l155 181l-156 181l34 30l182 -209v-4z" />
    <glyph glyph-name="fraction" unicode="&#x2044;" horiz-adv-x="192" 
d="M-180 13l521 696l31 -22l-521 -696z" />
    <glyph glyph-name="uni2070" unicode="&#x2070;" horiz-adv-x="373" 
d="M44 525c0 101 48 179 142 179c95 0 143 -79 143 -179c0 -101 -47 -179 -142 -179s-143 76 -143 179zM93 525c0 -87 35 -139 94 -139c64 0 93 53 93 139s-32 139 -94 139s-93 -54 -93 -139z" />
    <glyph glyph-name="uni2074" unicode="&#x2074;" horiz-adv-x="337" 
d="M212 350v87h-195v29l179 234h45l-175 -226h146v101h43v-101h62v-37h-62v-87h-43z" />
    <glyph glyph-name="uni2075" unicode="&#x2075;" horiz-adv-x="329" 
d="M71 524l23 176h194v-37h-162l-16 -104c11 3 30 7 50 7c78 0 130 -41 130 -105c0 -73 -60 -116 -133 -116c-56 0 -104 18 -130 58l26 25c20 -30 60 -46 97 -46c54 0 91 32 91 77c0 42 -39 73 -105 73c-23 0 -50 -3 -65 -8z" />
    <glyph glyph-name="uni2076" unicode="&#x2076;" horiz-adv-x="369" 
d="M42 478c0 125 109 215 224 227l10 -32c-86 -13 -165 -69 -184 -162c18 29 58 55 112 55c77 0 126 -44 126 -108c0 -65 -61 -113 -135 -113c-102 0 -153 59 -153 133zM91 472c1 -45 35 -90 104 -90c48 0 86 34 86 74c0 42 -31 76 -91 76c-54 0 -88 -33 -99 -60z" />
    <glyph glyph-name="uni2077" unicode="&#x2077;" horiz-adv-x="300" 
d="M20 660v40h259v-27l-160 -323h-51l157 310h-205z" />
    <glyph glyph-name="uni2078" unicode="&#x2078;" horiz-adv-x="379" 
d="M181 547h17c38 0 74 26 74 60c0 38 -40 61 -83 61s-82 -23 -82 -61c0 -35 37 -60 74 -60zM198 513h-15c-49 0 -90 -28 -90 -64c0 -40 42 -67 96 -67c53 0 97 26 97 67c0 40 -40 64 -88 64zM190 345c-78 0 -143 36 -143 96c0 43 32 77 82 88v2c-39 10 -68 44 -68 83
c0 55 56 91 128 91c73 0 129 -36 129 -91c0 -34 -24 -69 -71 -83v-1c50 -7 85 -40 85 -86c0 -63 -64 -99 -142 -99z" />
    <glyph glyph-name="uni2079" unicode="&#x2079;" horiz-adv-x="369" 
d="M326 567c0 -129 -97 -215 -230 -222l-7 33c106 11 184 79 187 161c-17 -32 -57 -58 -111 -58c-78 0 -126 47 -126 109c0 67 61 115 134 115c103 0 153 -59 153 -138zM277 575c-1 48 -34 93 -103 93c-48 0 -86 -34 -86 -74c0 -42 31 -79 90 -79c55 0 89 33 99 60z" />
    <glyph glyph-name="uni207A" unicode="&#x207a;" horiz-adv-x="360" 
d="M47 511v37h113v113h37v-113h116v-37h-116v-113h-37v113h-113z" />
    <glyph glyph-name="uni207B" unicode="&#x207b;" horiz-adv-x="360" 
d="M47 511v37h266v-37h-266z" />
    <glyph glyph-name="uni207C" unicode="&#x207c;" horiz-adv-x="360" 
d="M47 445v37h266v-37h-266zM47 577v37h266v-37h-266z" />
    <glyph glyph-name="uni207D" unicode="&#x207d;" horiz-adv-x="195" 
d="M185 334l-28 -27c-93 52 -127 142 -127 216c0 73 35 154 128 215l25 -26c-75 -51 -107 -116 -107 -189c0 -74 38 -145 109 -189z" />
    <glyph glyph-name="uni207E" unicode="&#x207e;" horiz-adv-x="195" 
d="M10 711l28 27c93 -52 127 -142 127 -216c0 -73 -36 -154 -128 -215l-25 26c74 50 107 116 107 189c0 74 -38 144 -109 189z" />
    <glyph glyph-name="uni2080" unicode="&#x2080;" horiz-adv-x="373" 
d="M44 175c0 101 48 179 142 179c95 0 143 -79 143 -179c0 -101 -47 -179 -142 -179s-143 76 -143 179zM93 175c0 -87 35 -139 94 -139c64 0 93 53 93 139s-32 139 -94 139s-93 -54 -93 -139z" />
    <glyph glyph-name="uni2081" unicode="&#x2081;" horiz-adv-x="239" 
d="M27 285l99 67h32v-352h-46v297l-66 -44z" />
    <glyph glyph-name="uni2082" unicode="&#x2082;" horiz-adv-x="339" 
d="M39 0v34c69 49 200 132 200 212c0 37 -25 68 -74 68c-36 0 -76 -22 -82 -63l-40 13c10 58 65 90 125 90c82 0 120 -47 120 -104c0 -98 -145 -185 -187 -210h206v-40h-268z" />
    <glyph glyph-name="uni2083" unicode="&#x2083;" horiz-adv-x="342" 
d="M164 -5c-55 0 -109 19 -133 67l28 24c18 -35 60 -52 100 -52c56 0 90 29 90 67c0 35 -33 60 -82 60h-36v34h32c38 0 71 27 71 64s-30 57 -76 57c-49 0 -78 -22 -92 -48l-24 25c18 36 61 62 125 62c71 0 116 -33 116 -88c0 -38 -26 -72 -71 -85v-1c55 -5 86 -43 86 -84
c0 -63 -60 -102 -134 -102z" />
    <glyph glyph-name="uni2084" unicode="&#x2084;" horiz-adv-x="337" 
d="M212 0v87h-195v29l179 234h45l-175 -226h146v101h43v-101h62v-37h-62v-87h-43z" />
    <glyph glyph-name="uni2085" unicode="&#x2085;" horiz-adv-x="329" 
d="M71 174l23 176h194v-37h-162l-16 -104c11 3 30 7 50 7c78 0 130 -41 130 -105c0 -73 -60 -116 -133 -116c-56 0 -104 18 -130 58l26 25c20 -30 60 -46 97 -46c54 0 91 32 91 77c0 42 -39 73 -105 73c-23 0 -50 -3 -65 -8z" />
    <glyph glyph-name="uni2086" unicode="&#x2086;" horiz-adv-x="369" 
d="M42 128c0 125 109 215 224 227l10 -32c-86 -13 -165 -69 -184 -162c18 29 58 55 112 55c77 0 126 -44 126 -108c0 -65 -61 -113 -135 -113c-102 0 -153 59 -153 133zM91 122c1 -45 35 -90 104 -90c48 0 86 34 86 74c0 42 -31 76 -91 76c-54 0 -88 -33 -99 -60z" />
    <glyph glyph-name="uni2087" unicode="&#x2087;" horiz-adv-x="300" 
d="M20 310v40h259v-27l-160 -323h-51l157 310h-205z" />
    <glyph glyph-name="uni2088" unicode="&#x2088;" horiz-adv-x="379" 
d="M181 197h17c38 0 74 26 74 60c0 38 -40 61 -83 61s-82 -23 -82 -61c0 -35 37 -60 74 -60zM198 163h-15c-49 0 -90 -28 -90 -64c0 -40 42 -67 96 -67c53 0 97 26 97 67c0 40 -40 64 -88 64zM190 -5c-78 0 -143 36 -143 96c0 43 32 77 82 88v2c-39 10 -68 44 -68 83
c0 55 56 91 128 91c73 0 129 -36 129 -91c0 -34 -24 -69 -71 -83v-1c50 -7 85 -40 85 -86c0 -63 -64 -99 -142 -99z" />
    <glyph glyph-name="uni2089" unicode="&#x2089;" horiz-adv-x="369" 
d="M326 217c0 -129 -97 -215 -230 -222l-7 33c106 11 184 79 187 161c-17 -32 -57 -58 -111 -58c-78 0 -126 47 -126 109c0 67 61 115 134 115c103 0 153 -59 153 -138zM277 225c-1 48 -34 93 -103 93c-48 0 -86 -34 -86 -74c0 -42 31 -79 90 -79c55 0 89 33 99 60z" />
    <glyph glyph-name="uni208A" unicode="&#x208a;" horiz-adv-x="360" 
d="M47 161v37h113v113h37v-113h116v-37h-116v-113h-37v113h-113z" />
    <glyph glyph-name="uni208B" unicode="&#x208b;" horiz-adv-x="360" 
d="M47 161v37h266v-37h-266z" />
    <glyph glyph-name="uni208C" unicode="&#x208c;" horiz-adv-x="360" 
d="M47 95v37h266v-37h-266zM47 227v37h266v-37h-266z" />
    <glyph glyph-name="uni208D" unicode="&#x208d;" horiz-adv-x="195" 
d="M185 -16l-28 -27c-93 52 -127 142 -127 216c0 73 35 154 128 215l25 -26c-75 -51 -107 -116 -107 -189c0 -74 38 -145 109 -189z" />
    <glyph glyph-name="uni208E" unicode="&#x208e;" horiz-adv-x="195" 
d="M10 361l28 27c93 -52 127 -142 127 -216c0 -73 -36 -154 -128 -215l-25 26c74 50 107 116 107 189c0 74 -38 144 -109 189z" />
    <glyph glyph-name="Euro" unicode="&#x20ac;" horiz-adv-x="589" 
d="M19 420l17 43h76c40 144 157 246 323 246c51 0 107 -13 137 -29l-20 -48c-30 15 -70 25 -116 25c-128 0 -226 -76 -264 -194h335l-15 -43h-331c-4 -23 -6 -46 -6 -70c0 -18 1 -36 3 -53h302l-14 -43h-279c35 -130 142 -211 281 -211c45 0 80 8 104 21l10 -51
c-23 -14 -77 -22 -118 -22c-172 0 -301 100 -337 263h-87l17 43h63c-2 17 -3 34 -3 53c0 24 2 47 5 70h-83z" />
    <glyph glyph-name="uni20B4" unicode="&#x20b4;" horiz-adv-x="600" 
d="M77 421v43h315c21 32 29 56 28 94c-1 56 -51 99 -115 99c-61 0 -109 -19 -147 -57l-27 39c39 45 102 70 174 70c109 0 174 -62 174 -148c0 -39 -15 -73 -35 -97h79v-43h-107c-50 -49 -120 -77 -171 -123h278v-43h-317c-23 -24 -39 -55 -39 -96c0 -78 71 -116 146 -116
c58 0 119 25 157 79l29 -36c-40 -62 -112 -95 -194 -95c-99 0 -190 57 -190 160c0 42 15 77 38 104h-76v43h108c49 47 121 77 172 123h-280z" />
    <glyph glyph-name="uni20B6" unicode="&#x20b6;" horiz-adv-x="600" 
d="M24 317v43h112v340c39 0 131 2 171 2c195 0 249 -89 249 -193c0 -109 -74 -192 -249 -192h-116v-123h181v-43h-181v-151h-55v151h-112v43h112v123h-112zM312 650c-31 0 -88 -1 -121 -2v-288h114c127 0 193 52 193 145c0 92 -54 145 -186 145z" />
    <glyph glyph-name="uni20B6" unicode="&#x20cf;" horiz-adv-x="600" 
d="M24 317v43h112v340c39 0 131 2 171 2c195 0 249 -89 249 -193c0 -109 -74 -192 -249 -192h-116v-123h181v-43h-181v-151h-55v151h-112v43h112v123h-112zM312 650c-31 0 -88 -1 -121 -2v-288h114c127 0 193 52 193 145c0 92 -54 145 -186 145z" />
    <glyph glyph-name="uni20B6" unicode="&#x20ce;" horiz-adv-x="600" 
d="M24 317v43h112v340c39 0 131 2 171 2c195 0 249 -89 249 -193c0 -109 -74 -192 -249 -192h-116v-123h181v-43h-181v-151h-55v151h-112v43h112v123h-112zM312 650c-31 0 -88 -1 -121 -2v-288h114c127 0 193 52 193 145c0 92 -54 145 -186 145z" />
    <glyph glyph-name="uni20B6" unicode="&#x20cd;" horiz-adv-x="600" 
d="M24 317v43h112v340c39 0 131 2 171 2c195 0 249 -89 249 -193c0 -109 -74 -192 -249 -192h-116v-123h181v-43h-181v-151h-55v151h-112v43h112v123h-112zM312 650c-31 0 -88 -1 -121 -2v-288h114c127 0 193 52 193 145c0 92 -54 145 -186 145z" />
    <glyph glyph-name="uni20B6" unicode="&#x20cc;" horiz-adv-x="600" 
d="M24 317v43h112v340c39 0 131 2 171 2c195 0 249 -89 249 -193c0 -109 -74 -192 -249 -192h-116v-123h181v-43h-181v-151h-55v151h-112v43h112v123h-112zM312 650c-31 0 -88 -1 -121 -2v-288h114c127 0 193 52 193 145c0 92 -54 145 -186 145z" />
    <glyph glyph-name="uni20B6" unicode="&#x20cb;" horiz-adv-x="600" 
d="M24 317v43h112v340c39 0 131 2 171 2c195 0 249 -89 249 -193c0 -109 -74 -192 -249 -192h-116v-123h181v-43h-181v-151h-55v151h-112v43h112v123h-112zM312 650c-31 0 -88 -1 -121 -2v-288h114c127 0 193 52 193 145c0 92 -54 145 -186 145z" />
    <glyph glyph-name="uni20B6" unicode="&#x20ca;" horiz-adv-x="600" 
d="M24 317v43h112v340c39 0 131 2 171 2c195 0 249 -89 249 -193c0 -109 -74 -192 -249 -192h-116v-123h181v-43h-181v-151h-55v151h-112v43h112v123h-112zM312 650c-31 0 -88 -1 -121 -2v-288h114c127 0 193 52 193 145c0 92 -54 145 -186 145z" />
    <glyph glyph-name="uni20B6" unicode="&#x20c9;" horiz-adv-x="600" 
d="M24 317v43h112v340c39 0 131 2 171 2c195 0 249 -89 249 -193c0 -109 -74 -192 -249 -192h-116v-123h181v-43h-181v-151h-55v151h-112v43h112v123h-112zM312 650c-31 0 -88 -1 -121 -2v-288h114c127 0 193 52 193 145c0 92 -54 145 -186 145z" />
    <glyph glyph-name="uni20B6" unicode="&#x20c8;" horiz-adv-x="600" 
d="M24 317v43h112v340c39 0 131 2 171 2c195 0 249 -89 249 -193c0 -109 -74 -192 -249 -192h-116v-123h181v-43h-181v-151h-55v151h-112v43h112v123h-112zM312 650c-31 0 -88 -1 -121 -2v-288h114c127 0 193 52 193 145c0 92 -54 145 -186 145z" />
    <glyph glyph-name="uni20B6" unicode="&#x20c7;" horiz-adv-x="600" 
d="M24 317v43h112v340c39 0 131 2 171 2c195 0 249 -89 249 -193c0 -109 -74 -192 -249 -192h-116v-123h181v-43h-181v-151h-55v151h-112v43h112v123h-112zM312 650c-31 0 -88 -1 -121 -2v-288h114c127 0 193 52 193 145c0 92 -54 145 -186 145z" />
    <glyph glyph-name="uni20B6" unicode="&#x20c6;" horiz-adv-x="600" 
d="M24 317v43h112v340c39 0 131 2 171 2c195 0 249 -89 249 -193c0 -109 -74 -192 -249 -192h-116v-123h181v-43h-181v-151h-55v151h-112v43h112v123h-112zM312 650c-31 0 -88 -1 -121 -2v-288h114c127 0 193 52 193 145c0 92 -54 145 -186 145z" />
    <glyph glyph-name="uni20B6" unicode="&#x20c5;" horiz-adv-x="600" 
d="M24 317v43h112v340c39 0 131 2 171 2c195 0 249 -89 249 -193c0 -109 -74 -192 -249 -192h-116v-123h181v-43h-181v-151h-55v151h-112v43h112v123h-112zM312 650c-31 0 -88 -1 -121 -2v-288h114c127 0 193 52 193 145c0 92 -54 145 -186 145z" />
    <glyph glyph-name="uni20B6" unicode="&#x20c4;" horiz-adv-x="600" 
d="M24 317v43h112v340c39 0 131 2 171 2c195 0 249 -89 249 -193c0 -109 -74 -192 -249 -192h-116v-123h181v-43h-181v-151h-55v151h-112v43h112v123h-112zM312 650c-31 0 -88 -1 -121 -2v-288h114c127 0 193 52 193 145c0 92 -54 145 -186 145z" />
    <glyph glyph-name="uni20B6" unicode="&#x20c3;" horiz-adv-x="600" 
d="M24 317v43h112v340c39 0 131 2 171 2c195 0 249 -89 249 -193c0 -109 -74 -192 -249 -192h-116v-123h181v-43h-181v-151h-55v151h-112v43h112v123h-112zM312 650c-31 0 -88 -1 -121 -2v-288h114c127 0 193 52 193 145c0 92 -54 145 -186 145z" />
    <glyph glyph-name="uni20B6" unicode="&#x20c2;" horiz-adv-x="600" 
d="M24 317v43h112v340c39 0 131 2 171 2c195 0 249 -89 249 -193c0 -109 -74 -192 -249 -192h-116v-123h181v-43h-181v-151h-55v151h-112v43h112v123h-112zM312 650c-31 0 -88 -1 -121 -2v-288h114c127 0 193 52 193 145c0 92 -54 145 -186 145z" />
    <glyph glyph-name="uni20B6" unicode="&#x20c1;" horiz-adv-x="600" 
d="M24 317v43h112v340c39 0 131 2 171 2c195 0 249 -89 249 -193c0 -109 -74 -192 -249 -192h-116v-123h181v-43h-181v-151h-55v151h-112v43h112v123h-112zM312 650c-31 0 -88 -1 -121 -2v-288h114c127 0 193 52 193 145c0 92 -54 145 -186 145z" />
    <glyph glyph-name="uni20B6" unicode="&#x20c0;" horiz-adv-x="600" 
d="M24 317v43h112v340c39 0 131 2 171 2c195 0 249 -89 249 -193c0 -109 -74 -192 -249 -192h-116v-123h181v-43h-181v-151h-55v151h-112v43h112v123h-112zM312 650c-31 0 -88 -1 -121 -2v-288h114c127 0 193 52 193 145c0 92 -54 145 -186 145z" />
    <glyph glyph-name="uni20B6" unicode="&#x20bf;" horiz-adv-x="600" 
d="M24 317v43h112v340c39 0 131 2 171 2c195 0 249 -89 249 -193c0 -109 -74 -192 -249 -192h-116v-123h181v-43h-181v-151h-55v151h-112v43h112v123h-112zM312 650c-31 0 -88 -1 -121 -2v-288h114c127 0 193 52 193 145c0 92 -54 145 -186 145z" />
    <glyph glyph-name="uni20B6" unicode="&#x20be;" horiz-adv-x="600" 
d="M24 317v43h112v340c39 0 131 2 171 2c195 0 249 -89 249 -193c0 -109 -74 -192 -249 -192h-116v-123h181v-43h-181v-151h-55v151h-112v43h112v123h-112zM312 650c-31 0 -88 -1 -121 -2v-288h114c127 0 193 52 193 145c0 92 -54 145 -186 145z" />
    <glyph glyph-name="uni20B6" unicode="&#x20bd;" horiz-adv-x="600" 
d="M24 317v43h112v340c39 0 131 2 171 2c195 0 249 -89 249 -193c0 -109 -74 -192 -249 -192h-116v-123h181v-43h-181v-151h-55v151h-112v43h112v123h-112zM312 650c-31 0 -88 -1 -121 -2v-288h114c127 0 193 52 193 145c0 92 -54 145 -186 145z" />
    <glyph glyph-name="uni20B6" unicode="&#x20bc;" horiz-adv-x="600" 
d="M24 317v43h112v340c39 0 131 2 171 2c195 0 249 -89 249 -193c0 -109 -74 -192 -249 -192h-116v-123h181v-43h-181v-151h-55v151h-112v43h112v123h-112zM312 650c-31 0 -88 -1 -121 -2v-288h114c127 0 193 52 193 145c0 92 -54 145 -186 145z" />
    <glyph glyph-name="uni20B6" unicode="&#x20bb;" horiz-adv-x="600" 
d="M24 317v43h112v340c39 0 131 2 171 2c195 0 249 -89 249 -193c0 -109 -74 -192 -249 -192h-116v-123h181v-43h-181v-151h-55v151h-112v43h112v123h-112zM312 650c-31 0 -88 -1 -121 -2v-288h114c127 0 193 52 193 145c0 92 -54 145 -186 145z" />
    <glyph glyph-name="uni20B6" unicode="&#x20ba;" horiz-adv-x="600" 
d="M24 317v43h112v340c39 0 131 2 171 2c195 0 249 -89 249 -193c0 -109 -74 -192 -249 -192h-116v-123h181v-43h-181v-151h-55v151h-112v43h112v123h-112zM312 650c-31 0 -88 -1 -121 -2v-288h114c127 0 193 52 193 145c0 92 -54 145 -186 145z" />
    <glyph glyph-name="uni20B6" unicode="&#x20b9;" horiz-adv-x="600" 
d="M24 317v43h112v340c39 0 131 2 171 2c195 0 249 -89 249 -193c0 -109 -74 -192 -249 -192h-116v-123h181v-43h-181v-151h-55v151h-112v43h112v123h-112zM312 650c-31 0 -88 -1 -121 -2v-288h114c127 0 193 52 193 145c0 92 -54 145 -186 145z" />
    <glyph glyph-name="uni20B6" unicode="&#x20b7;" horiz-adv-x="600" 
d="M24 317v43h112v340c39 0 131 2 171 2c195 0 249 -89 249 -193c0 -109 -74 -192 -249 -192h-116v-123h181v-43h-181v-151h-55v151h-112v43h112v123h-112zM312 650c-31 0 -88 -1 -121 -2v-288h114c127 0 193 52 193 145c0 92 -54 145 -186 145z" />
    <glyph glyph-name="afii61352" unicode="&#x2116;" horiz-adv-x="1166" 
d="M666 0h-44l-459 602v-602h-52v700h44l459 -604v604h52v-700zM748 496c0 96 74 162 172 162s172 -66 172 -162s-74 -163 -172 -163s-172 67 -172 163zM797 496c0 -73 59 -120 123 -120c66 0 123 47 123 120c0 72 -58 119 -123 119s-123 -47 -123 -119zM781 217v49h278v-49
h-278z" />
    <glyph glyph-name="trademark" unicode="&#x2122;" horiz-adv-x="832" 
d="M382 385v315h45l144 -165l138 165h44v-315h-50v252l-133 -160h-2l-137 160v-252h-49zM13 652v48h314v-48h-133v-267h-49v267h-132z" />
    <glyph glyph-name="arrowleft" unicode="&#x2190;" horiz-adv-x="643" 
d="M323 555l37 -36l-220 -219h463v-52h-464l221 -221l-37 -37l-283 283z" />
    <glyph glyph-name="arrowup" unicode="&#x2191;" horiz-adv-x="645" 
d="M77 243l-37 37l282 283l283 -283l-36 -37l-221 221v-464h-52v463z" />
    <glyph glyph-name="arrowright" unicode="&#x2192;" horiz-adv-x="643" 
d="M283 519l37 36l283 -282l-283 -283l-37 37l221 221h-464v52h463z" />
    <glyph glyph-name="arrowdown" unicode="&#x2193;" horiz-adv-x="645" 
d="M40 263l37 37l219 -220v463h52v-464l221 221l36 -37l-283 -283z" />
    <glyph glyph-name="partialdiff" unicode="&#x2202;" horiz-adv-x="583" 
d="M47 203c0 137 103 256 245 256c107 0 168 -61 188 -111c0 154 -73 299 -278 314l8 47c207 -10 325 -147 325 -363c0 -178 -96 -355 -275 -355c-124 0 -213 90 -213 212zM102 207c0 -91 65 -167 164 -167c126 0 200 131 211 253c-28 58 -81 117 -183 117
c-108 0 -192 -93 -192 -203z" />
    <glyph glyph-name="product" unicode="&#x220f;" horiz-adv-x="878" 
d="M712 -200v848h-546v-848h-55v900h656v-900h-55z" />
    <glyph glyph-name="summation" unicode="&#x2211;" horiz-adv-x="629" 
d="M353 250l-313 415v35h549v-52h-470l298 -398l-301 -398h473v-52h-549v35z" />
    <glyph glyph-name="minus" unicode="&#x2212;" horiz-adv-x="589" 
d="M71 337v46h446v-46h-446z" />
    <glyph glyph-name="uni2215" unicode="&#x2215;" horiz-adv-x="317" 
d="M-30 -192l336 901l41 -15l-335 -902z" />
    <glyph glyph-name="radical" unicode="&#x221a;" horiz-adv-x="587" 
d="M3 398v52h147l182 -362l137 612h266v-52h-220l-150 -654h-42l-209 404h-111z" />
    <glyph glyph-name="infinity" unicode="&#x221e;" horiz-adv-x="738" 
d="M543 195c-78 0 -130 53 -175 110c-41 -57 -87 -110 -165 -110c-70 0 -149 53 -149 146c0 78 61 148 152 148c71 0 118 -53 162 -110c40 57 87 110 174 110c88 0 142 -64 142 -152c0 -68 -49 -142 -141 -142zM533 443c-62 0 -101 -47 -138 -99c42 -54 84 -103 144 -103
c64 0 96 52 96 97c0 56 -35 105 -102 105zM207 241c63 0 99 46 134 98c-41 55 -79 104 -132 104c-64 0 -106 -47 -106 -102c0 -65 58 -100 104 -100z" />
    <glyph glyph-name="integral" unicode="&#x222b;" horiz-adv-x="335" 
d="M145 -23c0 -102 -28 -170 -109 -182c-15 -2 -30 -2 -47 -2c-32 2 -60 14 -77 27l16 42c16 -11 39 -21 65 -21c75 0 100 53 100 138v544c0 110 44 171 123 183c15 2 31 3 48 1c48 -2 80 -19 101 -36l-20 -40c-20 15 -42 27 -80 28c-24 1 -46 -3 -63 -12
c-36 -18 -57 -61 -57 -133v-537z" />
    <glyph glyph-name="approxequal" unicode="&#x2248;" horiz-adv-x="589" 
d="M82 236l-25 34c42 42 87 64 128 64c82 0 153 -73 231 -73c31 0 63 16 93 46l22 -36c-38 -36 -78 -56 -116 -56c-80 0 -153 73 -228 73c-37 0 -73 -20 -105 -52zM82 408l-25 34c42 42 87 64 128 64c82 0 153 -73 231 -73c31 0 63 16 93 46l22 -36
c-38 -36 -78 -56 -116 -56c-80 0 -153 73 -228 73c-37 0 -73 -20 -105 -52z" />
    <glyph glyph-name="notequal" unicode="&#x2260;" horiz-adv-x="589" 
d="M71 423v46h236l90 240l41 -15l-84 -225h163v-46h-180l-47 -126h227v-46h-244l-96 -260l-42 15l91 245h-155v46h172l47 126h-219z" />
    <glyph glyph-name="lessequal" unicode="&#x2264;" horiz-adv-x="589" 
d="M64 265v50l420 -261v-51zM484 175l-420 262v22l420 260v-57l-347 -214l347 -216v-57z" />
    <glyph glyph-name="greaterequal" unicode="&#x2265;" horiz-adv-x="589" 
d="M524 315v-50l-419 -262v51zM524 437l-419 -262v57l347 216l-347 214v57l419 -260v-22z" />
    <glyph glyph-name="lozenge" unicode="&#x25ca;" horiz-adv-x="470" 
d="M215 -6l-167 255l168 268h39l167 -257l-168 -266h-39zM101 250l134 -205l134 215l-134 204z" />
    <glyph glyph-name="spade" unicode="&#x2660;" horiz-adv-x="632" 
d="M316 510c105 -66 256 -220 256 -311c0 -51 -35 -104 -117 -104c-63 0 -103 33 -131 72c17 -72 46 -130 107 -167h-230c51 36 85 93 105 164c-28 -38 -68 -69 -129 -69c-82 0 -117 53 -117 105c0 90 151 244 256 310z" />
    <glyph glyph-name="club" unicode="&#x2663;" horiz-adv-x="612" 
d="M177 381c0 71 58 129 129 129s129 -58 129 -129c0 -6 -1 -13 -2 -19c66 -5 119 -61 119 -128c0 -71 -58 -129 -129 -129c-43 0 -81 21 -104 53c17 -63 46 -124 102 -158h-230c46 32 80 95 100 156c-23 -29 -62 -51 -102 -51c-71 0 -129 58 -129 129c0 67 52 123 118 128
c-1 6 -1 13 -1 19z" />
    <glyph glyph-name="heart" unicode="&#x2665;" horiz-adv-x="649" 
d="M325 0c-109 82 -265 259 -265 370c0 64 36 130 121 130c71 0 115 -50 144 -104c28 54 72 104 143 104c85 0 121 -66 121 -129c0 -112 -156 -289 -264 -371z" />
    <glyph glyph-name="diamond" unicode="&#x2666;" horiz-adv-x="583" 
d="M523 249c-85 -85 -160 -175 -232 -268c-70 92 -147 181 -231 268c85 89 160 179 231 269c73 -93 149 -183 232 -269z" />
    <glyph glyph-name="uniF350" unicode="&#xf350;" horiz-adv-x="574" 
d="M17 0l247 529h46l247 -529h-59l-77 167h-271l-77 -167h-56zM285 461l-112 -243h224z" />
    <glyph glyph-name="uniF351" unicode="&#xf351;" horiz-adv-x="507" 
d="M89 0v525h327v-52h-272v-161c31 3 72 4 98 4c136 0 206 -56 206 -153c0 -112 -83 -166 -218 -166c-54 0 -108 3 -141 3zM237 265c-24 0 -60 -1 -93 -4v-210c26 0 57 -2 92 -2c105 0 157 39 157 112c0 65 -49 104 -156 104z" />
    <glyph glyph-name="uniF352" unicode="&#xf352;" horiz-adv-x="512" 
d="M89 1v523c31 1 111 4 161 4c137 0 182 -58 182 -130c0 -68 -48 -112 -109 -124v-1c83 -9 130 -51 130 -124c0 -106 -88 -152 -205 -152c-49 0 -126 2 -159 4zM255 243h-111v-190c21 -1 72 -4 107 -4c92 0 147 33 147 102c0 59 -51 92 -143 92zM249 476
c-33 0 -83 -2 -105 -3v-181h112c66 0 121 35 121 93c0 59 -38 91 -128 91z" />
    <glyph glyph-name="uniF353" unicode="&#xf353;" horiz-adv-x="416" 
d="M89 0v525h321v-52h-266v-473h-55z" />
    <glyph glyph-name="uniF354" unicode="&#xf354;" horiz-adv-x="608" 
d="M13 -99v151h62c24 28 83 141 96 368l6 105h327v-473h77v-151h-52v99h-464v-99h-52zM223 384c-15 -205 -66 -308 -87 -332h313v421h-219z" />
    <glyph glyph-name="uniF355" unicode="&#xf355;" horiz-adv-x="481" 
d="M89 0v525h324v-52h-269v-181h245v-52h-245v-188h277v-52h-332z" />
    <glyph glyph-name="uniF356" unicode="&#xf356;" horiz-adv-x="756" 
d="M726 525l-237 -249l246 -276h-67l-240 274l231 251h67zM351 0v525h55v-525h-55zM267 274l-236 251h67l232 -251l-241 -274h-67z" />
    <glyph glyph-name="uniF357" unicode="&#xf357;" horiz-adv-x="478" 
d="M223 -8c-81 0 -158 39 -188 81l31 36c37 -40 101 -65 156 -65c90 0 142 42 142 107c0 55 -42 91 -117 91h-78v51h73c50 0 100 41 100 96c0 60 -48 91 -113 91c-64 0 -111 -22 -146 -59l-32 36c38 46 102 75 178 75c99 0 168 -51 168 -139c0 -49 -28 -100 -82 -120v-3
c67 -9 104 -64 104 -124c0 -97 -82 -154 -196 -154z" />
    <glyph glyph-name="uniF358" unicode="&#xf358;" horiz-adv-x="650" 
d="M138 0h-49v525h55v-438l368 438h49v-525h-55v438z" />
    <glyph glyph-name="uniF359" unicode="&#xf359;" horiz-adv-x="650" 
d="M138 0h-49v525h55v-438l368 438h49v-525h-55v438zM183 664h49c0 -49 35 -75 91 -75c53 0 87 26 87 75h49c0 -73 -55 -115 -136 -115c-89 0 -140 42 -140 115z" />
    <glyph glyph-name="uniF35A" unicode="&#xf35a;" horiz-adv-x="529" 
d="M497 525l-263 -247l274 -278h-75l-267 274l259 251h72zM89 0v525h55v-525h-55z" />
    <glyph glyph-name="uniF35B" unicode="&#xf35b;" horiz-adv-x="591" 
d="M448 0v473h-228l-9 -99c-31 -342 -110 -382 -190 -374l1 53c40 -3 112 18 139 367l8 105h334v-525h-55z" />
    <glyph glyph-name="uniF35C" unicode="&#xf35c;" horiz-adv-x="724" 
d="M89 0v525h56l223 -276l214 276h53v-525h-55v442l-212 -270h-8l-216 267v-439h-55z" />
    <glyph glyph-name="uniF35D" unicode="&#xf35d;" horiz-adv-x="633" 
d="M489 0v242h-345v-242h-55v525h55v-231h345v231h55v-525h-55z" />
    <glyph glyph-name="uniF35E" unicode="&#xf35e;" horiz-adv-x="650" 
d="M43 262c0 152 118 270 282 270c161 0 282 -112 282 -270c0 -155 -121 -270 -282 -270s-282 111 -282 270zM101 262c0 -124 98 -218 224 -218c133 0 224 94 224 218c0 126 -98 218 -224 218c-127 0 -224 -92 -224 -218z" />
    <glyph glyph-name="uniF35F" unicode="&#xf35f;" horiz-adv-x="632" 
d="M488 0v473h-344v-473h-55v525h454v-525h-55z" />
    <glyph glyph-name="uniF360" unicode="&#xf360;" horiz-adv-x="481" 
d="M144 0h-55v525c31 0 109 2 143 2c160 0 206 -81 206 -166c0 -89 -62 -168 -203 -168c-25 0 -60 1 -91 3v-196zM237 475c-24 0 -70 -1 -93 -2v-224c30 -2 58 -4 88 -4c99 0 148 48 148 116c0 66 -40 114 -143 114z" />
    <glyph glyph-name="uniF361" unicode="&#xf361;" horiz-adv-x="535" 
d="M484 92l22 -42c-39 -36 -110 -58 -178 -58c-171 0 -285 106 -285 270c0 148 103 270 279 270c72 0 130 -19 173 -50l-26 -41c-40 25 -86 39 -147 39c-132 0 -221 -90 -221 -218c0 -131 93 -218 231 -218c58 0 112 18 152 48z" />
    <glyph glyph-name="uniF362" unicode="&#xf362;" horiz-adv-x="484" 
d="M8 473v52h468v-52h-207v-473h-55v473h-206z" />
    <glyph glyph-name="uniF363" unicode="&#xf363;" horiz-adv-x="530" 
d="M518 525l-198 -404c-39 -81 -78 -121 -137 -121c-24 0 -47 7 -63 18l20 47c15 -9 29 -14 45 -14c36 0 57 31 74 63l11 19l-257 392h68l217 -337l163 337h57z" />
    <glyph glyph-name="uniF364" unicode="&#xf364;" horiz-adv-x="678" 
d="M310 -6v63h-2c-162 0 -273 77 -273 213c0 135 109 212 275 213v48h55v-48h1c168 0 277 -76 277 -213c0 -135 -112 -213 -273 -213h-5v-63h-55zM367 433h-2v-326h4c130 0 216 59 216 163c0 99 -83 163 -218 163zM93 270c0 -102 87 -163 215 -163h2v326h-1
c-132 0 -216 -65 -216 -163z" />
    <glyph glyph-name="uniF365" unicode="&#xf365;" horiz-adv-x="539" 
d="M511 525l-206 -258l214 -267h-68l-182 225l-181 -225h-68l214 267l-205 258h68l173 -216l173 216h68z" />
    <glyph glyph-name="uniF366" unicode="&#xf366;" horiz-adv-x="640" 
d="M89 0v525h55v-473h337v473h55v-473h77v-151h-51v99h-473z" />
    <glyph glyph-name="uniF367" unicode="&#xf367;" horiz-adv-x="526" 
d="M437 525v-525h-55v234c-31 -20 -90 -42 -157 -42c-92 0 -173 46 -173 168v165h55v-148c0 -92 52 -133 129 -133c64 0 114 22 146 41v240h55z" />
    <glyph glyph-name="uniF368" unicode="&#xf368;" horiz-adv-x="811" 
d="M89 0v525h55v-473h233v473h55v-473h235v473h55v-525h-633z" />
    <glyph glyph-name="uniF369" unicode="&#xf369;" horiz-adv-x="826" 
d="M89 0v525h55v-473h233v473h55v-473h235v473h55v-473h77v-151h-52v99h-658z" />
    <glyph glyph-name="uniF36A" unicode="&#xf36a;" horiz-adv-x="544" 
d="M3 473v52h196v-199c34 2 66 3 88 3c147 0 214 -61 214 -160c0 -109 -85 -171 -227 -171c-48 0 -97 2 -130 2v473h-141zM283 277c-21 0 -52 -1 -84 -3v-222c24 -1 53 -2 85 -2c100 0 159 39 159 118c0 71 -55 109 -160 109z" />
    <glyph glyph-name="uniF36B" unicode="&#xf36b;" horiz-adv-x="682" 
d="M538 0v525h55v-525h-55zM223 277c-21 0 -48 -1 -79 -3v-222c24 -1 46 -2 76 -2c103 0 159 40 159 118c0 70 -54 109 -156 109zM144 525v-199c33 2 61 3 82 3c144 0 211 -61 211 -160c0 -109 -85 -171 -223 -171c-48 0 -92 2 -125 2v525h55z" />
    <glyph glyph-name="uniF36C" unicode="&#xf36c;" horiz-adv-x="489" 
d="M227 277c-21 0 -52 -1 -83 -3v-222c24 0 51 -2 80 -2c104 0 164 39 164 118c0 71 -55 109 -161 109zM144 525v-199c33 2 66 3 87 3c147 0 215 -61 215 -160c0 -109 -86 -171 -228 -171c-47 0 -96 2 -129 2v525h55z" />
    <glyph glyph-name="uniF36D" unicode="&#xf36d;" horiz-adv-x="554" 
d="M160 242v52h294c-12 117 -98 186 -231 186c-63 0 -116 -12 -159 -43l-23 41c43 34 111 54 184 54c170 0 286 -104 286 -268c0 -158 -113 -271 -290 -271c-74 0 -141 20 -189 55l24 45c45 -30 101 -48 171 -48c130 0 218 77 228 197h-295z" />
    <glyph glyph-name="uniF36E" unicode="&#xf36e;" horiz-adv-x="866" 
d="M89 0v525h55v-231h137c13 136 116 238 268 238c164 0 274 -111 274 -269c0 -156 -110 -270 -274 -270c-150 0 -260 101 -269 249h-136v-242h-55zM337 263c0 -125 87 -218 213 -218c131 0 215 94 215 218c0 126 -87 217 -215 217c-125 0 -213 -91 -213 -217z" />
    <glyph glyph-name="uniF36F" unicode="&#xf36f;" horiz-adv-x="514" 
d="M370 0v196h-128l-153 -196h-65l161 205c-60 22 -116 74 -116 149c0 95 68 174 215 174c50 0 108 -3 141 -3v-525h-55zM236 248h134v225c-22 1 -57 3 -92 3c-103 0 -151 -54 -151 -119c0 -57 54 -101 109 -109z" />
    <glyph glyph-name="uniF371" unicode="&#xf371;" horiz-adv-x="481" 
d="M89 0v525h324v-52h-269v-181h245v-52h-245v-188h277v-52h-332zM128 661c0 18 15 31 33 31c15 0 31 -13 31 -31c0 -20 -16 -33 -31 -33c-18 0 -33 13 -33 33zM304 661c0 18 15 31 33 31c16 0 31 -13 31 -31c0 -20 -15 -33 -31 -33c-18 0 -33 13 -33 33z" />
    <glyph glyph-name="uniF372" unicode="&#xf372;" horiz-adv-x="620" 
d="M577 156c0 -117 -57 -163 -139 -163c-36 0 -70 16 -81 26l20 43c12 -9 34 -17 55 -17c54 0 90 30 90 109c0 80 -44 114 -124 114c-63 0 -99 -25 -129 -41v-227h-55v473h-206v52h468v-52h-207v-192c33 17 73 39 139 39c97 0 169 -44 169 -164z" />
    <glyph glyph-name="uniF373" unicode="&#xf373;" horiz-adv-x="416" 
d="M89 0v525h321v-52h-266v-473h-55zM348 719l-125 -131l-27 28l120 142z" />
    <glyph glyph-name="uniF374" unicode="&#xf374;" horiz-adv-x="554" 
d="M393 293v-52h-295c10 -125 106 -196 239 -196c67 0 117 18 163 48l22 -45c-48 -35 -110 -55 -185 -55c-176 0 -294 105 -294 270c0 157 114 269 285 269c74 0 142 -20 184 -54l-25 -41c-43 31 -103 43 -156 43c-140 0 -220 -74 -232 -187h294z" />
    <glyph glyph-name="uniF375" unicode="&#xf375;" horiz-adv-x="473" 
d="M371 136c0 136 -314 82 -314 260c0 75 59 136 186 136c61 0 139 -25 172 -61l-26 -41c-36 32 -100 50 -149 50c-77 0 -125 -34 -125 -86c0 -130 315 -73 315 -261c0 -86 -83 -141 -186 -141c-87 0 -166 31 -204 77l32 38c38 -37 102 -63 175 -63c61 0 124 31 124 92z" />
    <glyph glyph-name="uniF376" unicode="&#xf376;" horiz-adv-x="268" 
d="M106 0v525h55v-525h-55z" />
    <glyph glyph-name="uniF377" unicode="&#xf377;" horiz-adv-x="278" 
d="M45 660c0 18 14 30 31 30c15 0 29 -12 29 -30c0 -19 -14 -31 -29 -31c-17 0 -31 12 -31 31zM174 660c0 18 15 30 32 30c14 0 29 -12 29 -30c0 -19 -15 -31 -29 -31c-17 0 -32 12 -32 31zM111 0v525h55v-525h-55z" />
    <glyph glyph-name="uniF378" unicode="&#xf378;" horiz-adv-x="299" 
d="M210 525v-407c0 -77 -32 -125 -118 -125c-36 0 -67 13 -82 26l19 43c13 -9 35 -17 55 -17c58 0 71 35 71 81v399h55z" />
    <glyph glyph-name="uniF379" unicode="&#xf379;" horiz-adv-x="838" 
d="M448 0v473h-227l-10 -99c-32 -342 -110 -382 -190 -374l1 55c40 -3 112 16 139 365l8 105h334v-199c32 2 60 3 81 3c144 0 211 -61 211 -160c0 -110 -84 -171 -224 -171c-46 0 -91 2 -123 2zM581 277c-22 0 -47 -1 -78 -3v-222c22 0 45 -2 75 -2c103 0 159 40 159 118
c0 70 -54 109 -156 109z" />
    <glyph glyph-name="uniF37A" unicode="&#xf37a;" horiz-adv-x="872" 
d="M89 0v525h55v-213h337v213h55v-210c33 2 60 3 81 3c144 0 212 -59 212 -154c0 -107 -85 -166 -224 -166c-47 0 -92 2 -124 2v260h-337v-260h-55zM536 263v-211c23 0 45 -2 75 -2c104 0 160 39 160 113c0 66 -55 104 -157 104c-21 0 -47 -1 -78 -4z" />
    <glyph glyph-name="uniF37B" unicode="&#xf37b;" horiz-adv-x="620" 
d="M8 473v52h468v-52h-207v-196c30 20 82 40 144 40c92 0 164 -46 164 -168v-149h-55v136c0 89 -45 129 -121 129c-61 0 -102 -21 -132 -39v-226h-55v473h-206z" />
    <glyph glyph-name="uniF37C" unicode="&#xf37c;" horiz-adv-x="529" 
d="M497 525l-263 -247l274 -278h-75l-267 274l259 251h72zM89 0v525h55v-525h-55zM374 719l-125 -131l-27 28l120 142z" />
    <glyph glyph-name="uniF37E" unicode="&#xf37e;" horiz-adv-x="530" 
d="M518 525l-198 -404c-39 -81 -78 -121 -137 -121c-24 0 -47 7 -63 18l20 47c15 -9 29 -14 45 -14c36 0 57 31 74 63l11 19l-257 392h68l217 -337l163 337h57zM134 664h49c0 -49 35 -75 91 -75c53 0 87 26 87 75h49c0 -73 -55 -115 -136 -115c-89 0 -140 42 -140 115z" />
    <glyph glyph-name="uniF37F" unicode="&#xf37f;" horiz-adv-x="624" 
d="M89 0v525h55v-473h336v473h55v-525h-197v-117h-52v117h-197z" />
    <glyph glyph-name="uniF381" unicode="&#xf381;" horiz-adv-x="506" 
d="M3 396v46h103v83h55v-83h136v-46h-136v-82c33 2 66 3 87 3c147 0 215 -55 215 -154c0 -109 -86 -165 -228 -165c-47 0 -96 2 -129 2v396h-103zM244 268c-21 0 -52 -1 -83 -3v-216c24 0 51 -2 80 -2c104 0 164 38 164 115c0 69 -55 106 -161 106z" />
    <glyph glyph-name="uniF389" unicode="&#xf389;" horiz-adv-x="650" 
d="M43 262c0 152 118 270 282 270c161 0 282 -112 282 -270c0 -155 -121 -270 -282 -270s-282 111 -282 270zM209 284c-38 0 -75 -17 -107 -47c12 -112 105 -193 223 -193c122 0 209 79 222 188c-32 -24 -67 -38 -100 -38c-91 0 -156 90 -238 90zM452 243c31 0 68 16 96 42
c-11 114 -105 195 -223 195c-117 0 -208 -78 -222 -188c34 27 74 41 108 41c95 0 157 -90 241 -90z" />
    <glyph glyph-name="uniF38A" unicode="&#xf38a;" horiz-adv-x="535" 
d="M444 381l-153 -385h-40l-244 529h62l204 -452l126 331c34 89 66 127 117 127c13 0 27 -2 43 -7v-45c-51 18 -83 -19 -115 -98z" />
    <glyph glyph-name="uniF393" unicode="&#xf393;" horiz-adv-x="419" 
d="M89 0v525h272v96h52v-148h-269v-473h-55z" />
    <glyph glyph-name="uniF3CF" unicode="&#xf3cf;" horiz-adv-x="954" 
d="M545 0h-44l-360 434v-434h-52v525h44l360 -435v435h52v-525zM607 372c0 74 62 125 144 125c83 0 144 -51 144 -125s-61 -126 -144 -126c-82 0 -144 52 -144 126zM656 372c0 -51 46 -83 95 -83c52 0 95 32 95 83c0 50 -44 82 -95 82s-95 -32 -95 -82zM635 148v49h232v-49
h-232z" />
    <glyph glyph-name="uniF3D0" unicode="&#xf3d0;" horiz-adv-x="396" 
d="M60 664h49c0 -49 35 -75 91 -75c53 0 87 26 87 75h49c0 -73 -55 -115 -136 -115c-89 0 -140 42 -140 115z" />
    <glyph glyph-name="uniF400" unicode="&#xf400;" horiz-adv-x="0" 
d="M-167 685l-116 -143l-32 23l108 151z" />
    <glyph glyph-name="uniF401" unicode="&#xf401;" horiz-adv-x="0" 
d="M-258 824l-182 -86l-16 31l179 99z" />
    <glyph glyph-name="uniF406" unicode="&#xf406;" horiz-adv-x="448" 
d="M60 837l24 27c22 -26 67 -67 143 -67c66 0 113 34 140 67l21 -28c-29 -43 -86 -85 -161 -85c-87 0 -146 53 -167 86z" />
    <glyph glyph-name="uniF407" unicode="&#xf407;" horiz-adv-x="336" 
d="M60 -173l17 28c23 -13 52 -24 74 -24c40 0 70 17 70 46s-19 47 -71 47h-6v76h30v-50c72 -2 102 -31 102 -76s-43 -77 -114 -77c-46 0 -77 15 -102 30z" />
    <glyph glyph-name="uniF408" unicode="&#xf408;" horiz-adv-x="462" 
d="M60 767l168 98h4l170 -98l-23 -30l-149 81l-150 -81z" />
    <glyph glyph-name="uniF409" unicode="&#xf409;" horiz-adv-x="220" 
d="M80 -71l45 16c20 -4 35 -21 35 -50c0 -57 -40 -85 -85 -97l-15 24c33 13 48 33 48 65c0 25 -12 37 -28 42z" />
    <glyph glyph-name="uniF40A" unicode="&#xf40a;" horiz-adv-x="218" 
d="M89 719l43 28c14 -16 26 -42 26 -73c0 -69 -34 -110 -74 -132l-24 25c32 19 49 55 49 96c0 26 -10 46 -20 56z" />
    <glyph glyph-name="uniF40B" unicode="&#xf40b;" horiz-adv-x="197" 
d="M60 806c0 22 18 36 39 36c19 0 38 -14 38 -36c0 -24 -19 -37 -38 -37c-21 0 -39 13 -39 37z" />
    <glyph glyph-name="uniF40C" unicode="&#xf40c;" horiz-adv-x="344" 
d="M60 785c0 61 50 88 111 88c63 0 113 -27 113 -88c0 -60 -50 -91 -113 -91c-61 0 -111 31 -111 91zM100 785c0 -40 31 -60 72 -60c40 0 72 20 72 60s-32 57 -72 57c-41 0 -72 -17 -72 -57z" />
    <glyph glyph-name="uniF40D" unicode="&#xf40d;" horiz-adv-x="456" 
d="M78 767l-18 33c28 27 60 40 90 40c60 0 102 -44 156 -44c23 0 49 6 74 33l16 -33c-28 -33 -59 -46 -93 -46c-55 0 -102 44 -159 44c-21 0 -43 -8 -66 -27z" />
    <glyph glyph-name="uniF40E" unicode="&#xf40e;" horiz-adv-x="306" 
d="M230 -148l16 -33c-17 -11 -46 -19 -73 -19c-50 0 -113 21 -113 91c0 79 95 123 179 123v-14c-64 0 -127 -40 -127 -93c0 -52 47 -64 73 -64c12 0 28 1 45 9z" />
    <glyph glyph-name="uniF410" unicode="&#xf410;" horiz-adv-x="0" 
d="M-339 738l-183 86l20 44l178 -99z" />
    <glyph glyph-name="uniF416" unicode="&#xf416;" horiz-adv-x="220" 
d="M80 -71l45 16c20 -4 35 -21 35 -50c0 -57 -40 -85 -85 -97l-15 24c33 13 48 33 48 65c0 25 -12 37 -28 42z" />
    <glyph glyph-name="uniF418" unicode="&#xf418;" horiz-adv-x="218" 
d="M89 527l43 28c14 -16 26 -42 26 -73c0 -69 -34 -110 -74 -132l-24 25c32 19 49 55 49 96c0 26 -10 46 -20 56z" />
    <glyph glyph-name="uniF447" unicode="&#xf447;" horiz-adv-x="484" 
d="M145 -174l16 27c23 -14 50 -22 72 -22c40 0 70 17 70 46s-19 47 -71 47h-6v76h-12v473h-206v52h468v-52h-207v-473h-13v-50c68 -2 99 -31 99 -76s-42 -77 -115 -77c-42 0 -70 14 -95 29z" />
    <glyph glyph-name="uniF44E" unicode="&#xf44e;" horiz-adv-x="623" 
d="M39 293h481c-9 116 -97 187 -226 187c-59 0 -107 -13 -149 -43l-22 41c42 33 104 54 177 54c171 0 280 -105 280 -269c0 -158 -108 -271 -275 -271c-170 0 -277 121 -266 301zM305 44c137 0 212 86 217 197h-426c2 -108 81 -197 209 -197z" />
    <glyph glyph-name="uniF639" unicode="&#xf639;" horiz-adv-x="589" 
d="M73 350c0 207 65 358 221 358s221 -151 221 -358c0 -208 -63 -358 -219 -358s-223 150 -223 358zM128 350c0 -187 50 -309 168 -309c121 0 164 121 164 309s-45 309 -166 309c-120 0 -166 -122 -166 -309z" />
    <glyph glyph-name="uniF63A" unicode="&#xf63a;" horiz-adv-x="589" 
d="M86 0v43c114 112 331 323 331 483c0 67 -43 130 -134 130c-61 0 -130 -38 -144 -127l-44 17c15 106 104 162 192 162c129 0 185 -90 185 -172c0 -195 -259 -434 -318 -487h349v-49h-417z" />
    <glyph glyph-name="uniF63B" unicode="&#xf63b;" horiz-adv-x="589" 
d="M287 -9c-89 0 -169 37 -205 121l31 36c36 -75 107 -105 173 -105c98 0 158 65 158 150c0 83 -65 139 -152 139h-60v52h54c66 0 131 60 131 142c0 85 -52 131 -134 131c-79 0 -125 -39 -152 -96l-31 33c28 73 98 115 187 115c114 0 185 -66 185 -176
c0 -73 -39 -140 -111 -169v-3c88 -13 138 -89 138 -170c0 -123 -91 -200 -212 -200z" />
    <glyph glyph-name="uniF63C" unicode="&#xf63c;" horiz-adv-x="589" 
d="M386 0v185h-325v35l306 480h60l-297 -463h256v213h52v-213h103v-52h-103v-185h-52z" />
    <glyph glyph-name="uniF63D" unicode="&#xf63d;" horiz-adv-x="589" 
d="M142 364l43 336h304v-52h-259l-30 -228c17 5 43 9 68 9c129 0 222 -83 222 -212c0 -141 -101 -226 -217 -226c-75 0 -157 33 -199 111l31 37c37 -65 108 -96 169 -96c91 0 161 72 161 172c0 95 -74 167 -187 167c-39 0 -81 -8 -106 -18z" />
    <glyph glyph-name="uniF63E" unicode="&#xf63e;" horiz-adv-x="589" 
d="M68 248c0 257 182 427 337 461l22 -39c-133 -32 -271 -152 -299 -355c28 62 89 114 182 114c121 0 203 -89 203 -216c0 -131 -101 -222 -208 -222c-156 0 -237 120 -237 257zM123 248c0 -106 59 -205 181 -205c86 0 154 76 154 166c0 94 -56 171 -164 171
c-98 0 -155 -73 -171 -132z" />
    <glyph glyph-name="uniF63F" unicode="&#xf63f;" horiz-adv-x="589" 
d="M98 648v52h404v-32l-266 -668h-58l260 648h-340z" />
    <glyph glyph-name="uniF640" unicode="&#xf640;" horiz-adv-x="589" 
d="M280 386h31c64 0 129 58 129 135c0 87 -71 136 -147 136c-75 0 -144 -51 -144 -136c0 -77 66 -135 131 -135zM309 334h-26c-85 0 -158 -61 -158 -144c0 -86 77 -147 169 -147c96 0 171 57 170 147c0 91 -71 144 -155 144zM295 -9c-118 0 -225 71 -225 190
c0 84 56 157 142 177v3c-67 20 -118 92 -118 166c0 110 90 182 200 182s201 -72 201 -182c0 -68 -44 -138 -121 -165v-3c84 -11 145 -81 145 -174c0 -123 -106 -194 -224 -194z" />
    <glyph glyph-name="uniF641" unicode="&#xf641;" horiz-adv-x="589" 
d="M519 449c0 -262 -148 -431 -343 -458l-18 41c165 30 283 155 301 350c-27 -62 -89 -107 -178 -107c-125 0 -208 96 -208 214c0 131 110 220 216 220c156 0 230 -117 230 -260zM464 449c0 106 -52 208 -174 208c-86 0 -162 -74 -162 -164c0 -87 57 -169 165 -169
c98 0 155 66 171 125z" />
    <glyph glyph-name="uniF643" unicode="&#xf643;" horiz-adv-x="589" 
d="M38 250c0 135 96 259 256 259s256 -124 256 -259s-96 -259 -256 -259s-256 124 -256 259zM93 250c0 -110 76 -207 201 -207c126 0 201 97 201 207c0 112 -77 207 -201 207s-201 -95 -201 -207z" />
    <glyph glyph-name="uniF644" unicode="&#xf644;" horiz-adv-x="589" 
d="M148 398l156 110h35v-508h-55v439l-117 -87z" />
    <glyph glyph-name="uniF645" unicode="&#xf645;" horiz-adv-x="589" 
d="M86 0v40c119 48 331 151 331 289c0 74 -43 129 -132 129c-61 0 -133 -35 -151 -123l-36 30c19 95 109 145 187 145c130 0 184 -77 184 -171c0 -153 -189 -260 -258 -287h292v-52h-417z" />
    <glyph glyph-name="uniF646" unicode="&#xf646;" horiz-adv-x="589" 
d="M286 -209c-89 0 -168 37 -204 121l31 36c36 -75 106 -105 173 -105c98 0 158 65 158 150c0 83 -65 139 -152 139h-60v52h54c66 0 131 60 131 142c0 85 -53 131 -134 131c-79 0 -125 -39 -152 -96l-31 33c28 73 98 115 187 115c114 0 185 -66 185 -176
c0 -73 -39 -140 -111 -169v-3c88 -13 138 -89 138 -170c0 -123 -91 -200 -213 -200z" />
    <glyph glyph-name="uniF647" unicode="&#xf647;" horiz-adv-x="589" 
d="M386 -200v200h-325v35l298 465h60l-288 -448h255v213h52v-213h103v-52h-103v-200h-52z" />
    <glyph glyph-name="uniF648" unicode="&#xf648;" horiz-adv-x="589" 
d="M142 164l43 336h304v-52h-259l-30 -228c17 5 43 9 69 9c128 0 221 -83 221 -212c0 -141 -101 -226 -217 -226c-75 0 -156 33 -199 111l31 37c37 -65 108 -96 169 -96c91 0 161 72 161 172c0 95 -74 167 -187 167c-39 0 -80 -8 -106 -18z" />
    <glyph glyph-name="uniF649" unicode="&#xf649;" horiz-adv-x="589" 
d="M68 248c0 257 182 427 337 461l22 -39c-133 -32 -271 -152 -299 -355c28 62 89 114 182 114c121 0 203 -89 203 -216c0 -131 -101 -222 -208 -222c-156 0 -237 120 -237 257zM123 248c0 -106 59 -205 181 -205c86 0 154 76 154 166c0 94 -56 171 -164 171
c-98 0 -155 -73 -171 -132z" />
    <glyph glyph-name="uniF64A" unicode="&#xf64a;" horiz-adv-x="589" 
d="M98 448v52h404v-32l-266 -668h-58l260 648h-340z" />
    <glyph glyph-name="uniF64B" unicode="&#xf64b;" horiz-adv-x="589" 
d="M279 386h31c64 0 130 58 130 135c0 87 -72 136 -147 136c-76 0 -144 -51 -144 -136c0 -77 66 -135 130 -135zM309 334h-26c-85 0 -158 -61 -158 -144c0 -86 76 -147 169 -147c96 0 170 57 170 147c0 91 -71 144 -155 144zM295 -9c-118 0 -225 71 -225 190
c0 84 56 157 142 177v3c-67 20 -118 92 -118 166c0 110 90 182 200 182s201 -72 201 -182c0 -68 -45 -138 -121 -165v-3c83 -11 145 -81 145 -174c0 -123 -106 -194 -224 -194z" />
    <glyph glyph-name="uniF64C" unicode="&#xf64c;" horiz-adv-x="589" 
d="M519 249c0 -262 -148 -431 -342 -458l-19 41c165 30 283 155 301 350c-27 -62 -89 -107 -178 -107c-125 0 -208 96 -208 214c0 131 110 220 216 220c156 0 230 -117 230 -260zM464 249c0 106 -52 208 -173 208c-86 0 -163 -74 -163 -164c0 -87 57 -169 166 -169
c97 0 155 66 170 125z" />
    <glyph glyph-name="uniF66D" unicode="&#xf66d;" horiz-adv-x="574" 
d="M17 0l247 529h46l247 -529h-59l-77 167h-271l-77 -167h-56zM285 461l-112 -243h224zM147 697l24 27c21 -25 56 -65 118 -65c54 0 92 33 117 64l20 -26c-27 -38 -68 -81 -139 -81c-79 0 -123 54 -140 81z" />
    <glyph glyph-name="uniF66E" unicode="&#xf66e;" horiz-adv-x="574" 
d="M17 0l247 529h46l247 -529h-59l-77 167h-271l-77 -167h-56zM285 461l-112 -243h224zM161 647v43h252v-43h-252z" />
    <glyph glyph-name="uniF66F" unicode="&#xf66f;" horiz-adv-x="574" 
d="M535 -148l16 -33c-17 -11 -46 -19 -73 -19c-50 0 -113 21 -113 91c0 64 61 105 129 118l-73 158h-271l-77 -167h-56l247 529h46l247 -529h-13c-64 0 -127 -40 -127 -93c0 -52 47 -64 73 -64c12 0 28 1 45 9zM285 461l-112 -243h224z" />
    <glyph glyph-name="uniF671" unicode="&#xf671;" horiz-adv-x="535" 
d="M484 92l22 -42c-39 -36 -110 -58 -178 -58c-171 0 -285 106 -285 270c0 148 103 270 279 270c72 0 130 -19 173 -50l-26 -41c-40 25 -86 39 -147 39c-132 0 -221 -90 -221 -218c0 -131 93 -218 231 -218c58 0 112 18 152 48zM415 719l-125 -131l-27 28l120 142z" />
    <glyph glyph-name="uniF672" unicode="&#xf672;" horiz-adv-x="535" 
d="M484 92l22 -42c-39 -36 -110 -58 -178 -58c-171 0 -285 106 -285 270c0 148 103 270 279 270c72 0 130 -19 173 -50l-26 -41c-40 25 -86 39 -147 39c-132 0 -221 -90 -221 -218c0 -131 93 -218 231 -218c58 0 112 18 152 48zM308 592l-137 115l26 31l113 -95l113 95
l25 -31l-136 -115h-4z" />
    <glyph glyph-name="uniF673" unicode="&#xf673;" horiz-adv-x="535" 
d="M484 92l22 -42c-39 -36 -110 -58 -178 -58c-171 0 -285 106 -285 270c0 148 103 270 279 270c72 0 130 -19 173 -50l-26 -41c-40 25 -86 39 -147 39c-132 0 -221 -90 -221 -218c0 -131 93 -218 231 -218c58 0 112 18 152 48zM313 736l142 -114l-25 -32l-119 96l-121 -95
l-26 31l145 114h4z" />
    <glyph glyph-name="uniF674" unicode="&#xf674;" horiz-adv-x="535" 
d="M484 92l22 -42c-39 -36 -110 -58 -178 -58c-171 0 -285 106 -285 270c0 148 103 270 279 270c72 0 130 -19 173 -50l-26 -41c-40 25 -86 39 -147 39c-132 0 -221 -90 -221 -218c0 -131 93 -218 231 -218c58 0 112 18 152 48zM271 668c0 20 17 33 37 33
c17 0 34 -13 34 -33c0 -23 -17 -37 -34 -37c-20 0 -37 14 -37 37z" />
    <glyph glyph-name="uniF675" unicode="&#xf675;" horiz-adv-x="602" 
d="M89 0v525h9c40 0 92 2 141 2c228 0 320 -116 320 -258c0 -152 -109 -271 -327 -271c-40 0 -88 2 -136 2h-7zM237 475c-39 0 -62 -1 -93 -2v-421c43 -1 83 -2 90 -2c175 0 267 93 267 219c0 118 -80 206 -264 206zM271 592l-137 115l26 31l113 -95l113 95l25 -31
l-136 -115h-4z" />
    <glyph glyph-name="uniF676" unicode="&#xf676;" horiz-adv-x="617" 
d="M8 244v49h95v232h10c40 0 92 2 147 2c222 0 314 -120 314 -258c0 -149 -109 -271 -318 -271c-49 0 -98 2 -145 2h-8v244h-95zM260 475c-42 0 -69 -2 -102 -3v-179h159v-49h-159v-192c43 0 88 -2 95 -2c173 0 263 94 263 219c0 118 -80 206 -256 206z" />
    <glyph glyph-name="uniF678" unicode="&#xf678;" horiz-adv-x="481" 
d="M89 0v525h324v-52h-269v-181h245v-52h-245v-188h277v-52h-332zM251 592l-137 115l26 31l113 -95l113 95l25 -31l-136 -115h-4z" />
    <glyph glyph-name="uniF679" unicode="&#xf679;" horiz-adv-x="481" 
d="M89 0v525h324v-52h-269v-181h245v-52h-245v-188h277v-52h-332zM214 668c0 20 17 33 37 33c17 0 34 -13 34 -33c0 -23 -17 -37 -34 -37c-20 0 -37 14 -37 37z" />
    <glyph glyph-name="uniF67A" unicode="&#xf67a;" horiz-adv-x="481" 
d="M89 0v525h324v-52h-269v-181h245v-52h-245v-188h277v-52h-332zM122 647v43h252v-43h-252z" />
    <glyph glyph-name="uniF67C" unicode="&#xf67c;" horiz-adv-x="481" 
d="M89 0v525h324v-52h-269v-181h245v-52h-245v-188h277v-52h-9c-63 -2 -122 -41 -122 -93s47 -64 73 -64c12 0 28 1 45 9l16 -33c-17 -11 -46 -19 -73 -19c-50 0 -113 21 -113 91c0 53 42 90 96 109h-245z" />
    <glyph glyph-name="uniF67D" unicode="&#xf67d;" horiz-adv-x="593" 
d="M328 212v49h214v-197c-50 -46 -143 -72 -213 -72c-174 0 -286 106 -286 270c0 150 110 270 278 270c76 0 131 -17 178 -50l-25 -44c-37 28 -89 42 -146 42c-135 0 -227 -89 -227 -218c0 -132 93 -218 229 -218c58 0 123 18 160 50v118h-162zM167 697l24 27
c21 -25 56 -65 118 -65c54 0 92 33 117 64l20 -26c-27 -38 -68 -81 -139 -81c-79 0 -123 54 -140 81z" />
    <glyph glyph-name="uniF67E" unicode="&#xf67e;" horiz-adv-x="593" 
d="M328 212v49h214v-197c-50 -46 -143 -72 -213 -72c-174 0 -286 106 -286 270c0 150 110 270 278 270c76 0 131 -17 178 -50l-25 -44c-37 28 -89 42 -146 42c-135 0 -227 -89 -227 -218c0 -132 93 -218 229 -218c58 0 123 18 160 50v118h-162zM323 736l142 -114l-25 -32
l-119 96l-121 -95l-26 31l145 114h4z" />
    <glyph glyph-name="uniF67F" unicode="&#xf67f;" horiz-adv-x="593" 
d="M328 212v49h214v-197c-50 -46 -143 -72 -213 -72c-174 0 -286 106 -286 270c0 150 110 270 278 270c76 0 131 -17 178 -50l-25 -44c-37 28 -89 42 -146 42c-135 0 -227 -89 -227 -218c0 -132 93 -218 229 -218c58 0 123 18 160 50v118h-162zM285 -71l45 16
c20 -4 35 -21 35 -50c0 -57 -40 -85 -85 -97l-15 24c33 13 48 33 48 65c0 25 -12 37 -28 42z" />
    <glyph glyph-name="uniF680" unicode="&#xf680;" horiz-adv-x="593" 
d="M328 212v49h214v-197c-50 -46 -143 -72 -213 -72c-174 0 -286 106 -286 270c0 150 110 270 278 270c76 0 131 -17 178 -50l-25 -44c-37 28 -89 42 -146 42c-135 0 -227 -89 -227 -218c0 -132 93 -218 229 -218c58 0 123 18 160 50v118h-162zM277 668c0 20 17 33 37 33
c17 0 34 -13 34 -33c0 -23 -17 -37 -34 -37c-20 0 -37 14 -37 37z" />
    <glyph glyph-name="uniF681" unicode="&#xf681;" horiz-adv-x="632" 
d="M30 390v49h59v86h55v-86h345v86h55v-86h58v-49h-58v-390h-55v242h-345v-242h-55v390h-59zM144 294h345v96h-345v-96z" />
    <glyph glyph-name="uniF682" unicode="&#xf682;" horiz-adv-x="633" 
d="M489 0v242h-345v-242h-55v525h55v-231h345v231h55v-525h-55zM319 736l142 -114l-25 -32l-119 96l-121 -95l-26 31l145 114h4z" />
    <glyph glyph-name="uniF685" unicode="&#xf685;" horiz-adv-x="268" 
d="M106 0v525h55v-525h-55zM8 647v43h252v-43h-252z" />
    <glyph glyph-name="uniF686" unicode="&#xf686;" horiz-adv-x="268" 
d="M149 -148l16 -33c-17 -11 -46 -19 -73 -19c-50 0 -113 21 -113 91c0 63 60 104 127 118v516h55v-525h-8c-63 -2 -122 -41 -122 -93s47 -64 73 -64c12 0 28 1 45 9z" />
    <glyph glyph-name="uniF688" unicode="&#xf688;" horiz-adv-x="299" 
d="M210 525v-407c0 -77 -32 -125 -118 -125c-36 0 -67 13 -82 26l19 43c13 -9 35 -17 55 -17c58 0 71 35 71 81v399h55zM179 736l142 -114l-25 -32l-119 96l-121 -95l-26 31l145 114h4z" />
    <glyph glyph-name="uniF689" unicode="&#xf689;" horiz-adv-x="529" 
d="M497 525l-263 -247l274 -278h-75l-267 274l259 251h72zM89 0v525h55v-525h-55zM221 -71l45 16c20 -4 35 -21 35 -50c0 -57 -40 -85 -85 -97l-15 24c33 13 48 33 48 65c0 25 -12 37 -28 42z" />
    <glyph glyph-name="uniF68A" unicode="&#xf68a;" horiz-adv-x="453" 
d="M89 0v525h55v-470h292v-55h-347zM307 719l-125 -131l-27 28l120 142z" />
    <glyph glyph-name="uniF68B" unicode="&#xf68b;" horiz-adv-x="453" 
d="M89 0v525h55v-470h292v-55h-347zM304 525h50c6 -10 9 -23 9 -40c0 -71 -37 -118 -75 -137l-23 24c29 22 49 62 49 107c0 20 -4 34 -10 46z" />
    <glyph glyph-name="uniF68C" unicode="&#xf68c;" horiz-adv-x="453" 
d="M89 0v525h55v-470h292v-55h-347zM225 -71l45 16c20 -4 35 -21 35 -50c0 -57 -40 -85 -85 -97l-15 24c33 13 48 33 48 65c0 25 -12 37 -28 42z" />
    <glyph glyph-name="uniF68D" unicode="&#xf68d;" horiz-adv-x="453" 
d="M89 0v525h55v-470h292v-55h-347zM307 293c0 18 16 36 40 36c21 0 36 -18 36 -36c0 -21 -15 -40 -36 -40c-24 0 -40 19 -40 40z" />
    <glyph glyph-name="uniF68E" unicode="&#xf68e;" horiz-adv-x="650" 
d="M561 0h-44l-376 434v-434h-52v525h44l376 -435v435h52v-525zM438 719l-125 -131l-27 28l120 142z" />
    <glyph glyph-name="uniF68F" unicode="&#xf68f;" horiz-adv-x="650" 
d="M561 0h-44l-376 434v-434h-52v525h44l376 -435v435h52v-525zM323 592l-137 115l26 31l113 -95l113 95l25 -31l-136 -115h-4z" />
    <glyph glyph-name="uniF690" unicode="&#xf690;" horiz-adv-x="650" 
d="M561 0h-44l-376 434v-434h-52v525h44l376 -435v435h52v-525zM278 -71l45 16c20 -4 35 -21 35 -50c0 -57 -40 -85 -85 -97l-15 24c33 13 48 33 48 65c0 25 -12 37 -28 42z" />
    <glyph glyph-name="uniF692" unicode="&#xf692;" horiz-adv-x="650" 
d="M43 262c0 152 118 270 282 270c161 0 282 -112 282 -270c0 -155 -121 -270 -282 -270s-282 111 -282 270zM101 262c0 -124 98 -218 224 -218c133 0 224 94 224 218c0 126 -98 218 -224 218c-127 0 -224 -92 -224 -218zM513 726l-129 -137l-25 19l116 147zM357 731
l-115 -142l-29 19l106 151z" />
    <glyph glyph-name="uniF693" unicode="&#xf693;" horiz-adv-x="650" 
d="M43 262c0 152 118 270 282 270c161 0 282 -112 282 -270c0 -155 -121 -270 -282 -270s-282 111 -282 270zM101 262c0 -124 98 -218 224 -218c133 0 224 94 224 218c0 126 -98 218 -224 218c-127 0 -224 -92 -224 -218zM199 647v43h252v-43h-252z" />
    <glyph glyph-name="uniF695" unicode="&#xf695;" horiz-adv-x="517" 
d="M144 0h-55v525c31 0 106 2 138 2c162 0 206 -74 206 -158c0 -79 -55 -133 -126 -148l185 -221h-70l-172 208h-106v-208zM229 475c-17 0 -64 -1 -85 -2v-213h95c69 0 136 43 136 109c0 58 -36 106 -146 106zM343 719l-125 -131l-27 28l120 142z" />
    <glyph glyph-name="uniF696" unicode="&#xf696;" horiz-adv-x="517" 
d="M144 0h-55v525c31 0 106 2 138 2c162 0 206 -74 206 -158c0 -79 -55 -133 -126 -148l185 -221h-70l-172 208h-106v-208zM229 475c-17 0 -64 -1 -85 -2v-213h95c69 0 136 43 136 109c0 58 -36 106 -146 106zM226 592l-137 115l26 31l113 -95l113 95l25 -31l-136 -115h-4z
" />
    <glyph glyph-name="uniF697" unicode="&#xf697;" horiz-adv-x="517" 
d="M144 0h-55v525c31 0 106 2 138 2c162 0 206 -74 206 -158c0 -79 -55 -133 -126 -148l185 -221h-70l-172 208h-106v-208zM229 475c-17 0 -64 -1 -85 -2v-213h95c69 0 136 43 136 109c0 58 -36 106 -146 106zM225 -71l45 16c20 -4 35 -21 35 -50c0 -57 -40 -85 -85 -97
l-15 24c33 13 48 33 48 65c0 25 -12 37 -28 42z" />
    <glyph glyph-name="uniF698" unicode="&#xf698;" horiz-adv-x="473" 
d="M371 136c0 136 -314 82 -314 260c0 75 59 136 186 136c61 0 139 -25 172 -61l-26 -41c-36 32 -100 50 -149 50c-77 0 -125 -34 -125 -86c0 -130 315 -73 315 -261c0 -86 -83 -141 -186 -141c-87 0 -166 31 -204 77l32 38c38 -37 102 -63 175 -63c61 0 124 31 124 92z
M354 719l-125 -131l-27 28l120 142z" />
    <glyph glyph-name="uniF699" unicode="&#xf699;" horiz-adv-x="473" 
d="M139 -174l16 27c23 -14 50 -22 72 -22c40 0 70 17 70 46s-19 47 -71 47h-6v69c-78 5 -146 34 -180 76l32 38c38 -37 102 -63 175 -63c61 0 124 31 124 92c0 136 -314 82 -314 260c0 75 59 136 186 136c61 0 139 -25 172 -61l-26 -41c-36 32 -100 50 -149 50
c-77 0 -125 -34 -125 -86c0 -130 315 -73 315 -261c0 -85 -80 -139 -180 -141v-42c68 -2 99 -31 99 -76s-42 -77 -115 -77c-42 0 -70 14 -95 29z" />
    <glyph glyph-name="uniF69A" unicode="&#xf69a;" horiz-adv-x="473" 
d="M371 136c0 136 -314 82 -314 260c0 75 59 136 186 136c61 0 139 -25 172 -61l-26 -41c-36 32 -100 50 -149 50c-77 0 -125 -34 -125 -86c0 -130 315 -73 315 -261c0 -86 -83 -141 -186 -141c-87 0 -166 31 -204 77l32 38c38 -37 102 -63 175 -63c61 0 124 31 124 92z
M239 736l142 -114l-25 -32l-119 96l-121 -95l-26 31l145 114h4z" />
    <glyph glyph-name="uniF69B" unicode="&#xf69b;" horiz-adv-x="473" 
d="M371 136c0 136 -314 82 -314 260c0 75 59 136 186 136c61 0 139 -25 172 -61l-26 -41c-36 32 -100 50 -149 50c-77 0 -125 -34 -125 -86c0 -130 315 -73 315 -261c0 -86 -83 -141 -186 -141c-87 0 -166 31 -204 77l32 38c38 -37 102 -63 175 -63c61 0 124 31 124 92z
M208 -71l45 16c20 -4 35 -21 35 -50c0 -57 -40 -85 -85 -97l-15 24c33 13 48 33 48 65c0 25 -12 37 -28 42z" />
    <glyph glyph-name="uniF69D" unicode="&#xf69d;" horiz-adv-x="484" 
d="M8 473v52h468v-52h-207v-473h-55v473h-206zM241 592l-137 115l26 31l113 -95l113 95l25 -31l-136 -115h-4z" />
    <glyph glyph-name="uniF69E" unicode="&#xf69e;" horiz-adv-x="484" 
d="M8 473v52h468v-52h-207v-473h-55v473h-206zM212 -71l45 16c20 -4 35 -21 35 -50c0 -57 -40 -85 -85 -97l-15 24c33 13 48 33 48 65c0 25 -12 37 -28 42z" />
    <glyph glyph-name="uniF69F" unicode="&#xf69f;" horiz-adv-x="613" 
d="M532 525v-306c0 -160 -102 -226 -218 -226c-134 0 -234 78 -234 231v301h55v-290c0 -119 69 -190 179 -190c98 0 163 60 163 186v294h55zM167 697l24 27c21 -25 56 -65 118 -65c54 0 92 33 117 64l20 -26c-27 -38 -68 -81 -139 -81c-79 0 -123 54 -140 81z" />
    <glyph glyph-name="uniF6A0" unicode="&#xf6a0;" horiz-adv-x="613" 
d="M532 525v-306c0 -160 -102 -226 -218 -226c-134 0 -234 78 -234 231v301h55v-290c0 -119 69 -190 179 -190c98 0 163 60 163 186v294h55zM496 726l-129 -137l-25 19l116 147zM340 731l-115 -142l-29 19l106 151z" />
    <glyph glyph-name="uniF6A1" unicode="&#xf6a1;" horiz-adv-x="613" 
d="M532 525v-306c0 -160 -102 -226 -218 -226c-134 0 -234 78 -234 231v301h55v-290c0 -119 69 -190 179 -190c98 0 163 60 163 186v294h55zM180 647v43h252v-43h-252z" />
    <glyph glyph-name="uniF6A2" unicode="&#xf6a2;" horiz-adv-x="613" 
d="M532 525v-306c0 -118 -56 -185 -132 -212c-50 -28 -87 -58 -87 -100c0 -52 47 -64 73 -64c12 0 28 1 45 9l16 -33c-17 -11 -46 -19 -73 -19c-50 0 -113 21 -113 91c0 54 43 82 88 104c-12 -1 -23 -2 -35 -2c-134 0 -234 78 -234 231v301h55v-290c0 -119 69 -190 179 -190
c98 0 163 60 163 186v294h55z" />
    <glyph glyph-name="uniF6A3" unicode="&#xf6a3;" horiz-adv-x="613" 
d="M532 525v-306c0 -160 -102 -226 -218 -226c-134 0 -234 78 -234 231v301h55v-290c0 -119 69 -190 179 -190c98 0 163 60 163 186v294h55zM201 654c0 57 46 104 105 104c60 0 107 -47 107 -104s-47 -102 -107 -102c-59 0 -105 45 -105 102zM236 655c0 -41 31 -72 71 -72
s71 31 71 72c0 40 -31 72 -71 72s-71 -32 -71 -72z" />
    <glyph glyph-name="uniF6AB" unicode="&#xf6ab;" horiz-adv-x="514" 
d="M49 473v52h425v-36l-360 -437h368v-52h-449v36l359 437h-343zM371 719l-125 -131l-27 28l120 142z" />
    <glyph glyph-name="uniF6AC" unicode="&#xf6ac;" horiz-adv-x="514" 
d="M49 473v52h425v-36l-360 -437h368v-52h-449v36l359 437h-343zM222 668c0 20 17 33 37 33c17 0 34 -13 34 -33c0 -23 -17 -37 -34 -37c-20 0 -37 14 -37 37z" />
    <glyph glyph-name="uniF6AD" unicode="&#xf6ad;" horiz-adv-x="268" 
d="M106 0v525h55v-525h-55zM99 668c0 20 17 33 37 33c17 0 34 -13 34 -33c0 -23 -17 -37 -34 -37c-20 0 -37 14 -37 37z" />
    <glyph glyph-name="uniF6BA" unicode="&#xf6ba;" horiz-adv-x="399" 
d="M85 329v49h229v-49h-229z" />
    <glyph glyph-name="uniF6BB" unicode="&#xf6bb;" horiz-adv-x="590" 
d="M94 331v46h402v-46h-402z" />
    <glyph glyph-name="uniF6BC" unicode="&#xf6bc;" horiz-adv-x="796" 
d="M94 331v46h608v-46h-608z" />
    <glyph glyph-name="uniF6C3" unicode="&#xf6c3;" horiz-adv-x="220" 
d="M80 -71l45 16c20 -4 35 -21 35 -50c0 -57 -40 -85 -85 -97l-15 24c33 13 48 33 48 65c0 25 -12 37 -28 42z" />
    <glyph glyph-name="uniF6C9" unicode="&#xf6c9;" horiz-adv-x="318" 
d="M258 824l-182 -86l-16 31l179 99z" />
    <glyph glyph-name="uniF6CA" unicode="&#xf6ca;" horiz-adv-x="463" 
d="M231 740l-171 98l23 30l150 -83l149 83l21 -29l-168 -99h-4z" />
    <glyph glyph-name="uniF6CB" unicode="&#xf6cb;" horiz-adv-x="427" 
d="M60 804c0 20 17 32 38 32c18 0 36 -12 36 -32c0 -22 -18 -34 -36 -34c-21 0 -38 12 -38 34zM293 804c0 20 18 32 39 32c18 0 35 -12 35 -32c0 -22 -17 -34 -35 -34c-21 0 -39 12 -39 34z" />
    <glyph glyph-name="uniF6CE" unicode="&#xf6ce;" horiz-adv-x="318" 
d="M243 738l-183 86l20 44l178 -99z" />
    <glyph glyph-name="uniF6CF" unicode="&#xf6cf;" horiz-adv-x="486" 
d="M426 835l-169 -97l-22 24l156 106zM241 843l-158 -105l-23 22l139 108z" />
    <glyph glyph-name="uniF6D0" unicode="&#xf6d0;" horiz-adv-x="420" 
d="M60 778v43h300v-43h-300z" />
    <glyph glyph-name="uniF6D1" unicode="&#xf6d1;" horiz-adv-x="470" 
d="M60 852h52c21 -42 63 -71 125 -71c57 0 107 27 121 71h52c-13 -66 -89 -111 -173 -111c-93 0 -160 47 -177 111z" />
    <glyph glyph-name="uniF6D4" unicode="&#xf6d4;" horiz-adv-x="396" 
d="M60 684h47c0 -49 37 -88 93 -88c53 0 89 39 89 88h47c0 -73 -55 -128 -136 -128c-89 0 -140 55 -140 128z" />
    <glyph glyph-name="uniF6DC" unicode="&#xf6dc;" horiz-adv-x="589" 
d="M148 579l159 127h36v-706h-52v630l-115 -93z" />
    <glyph glyph-name="uniF6DE" unicode="&#xf6de;" horiz-adv-x="597" 
d="M70 247v46h456v-46h-456z" />
    <glyph glyph-name="uniF6F4" unicode="&#xf6f4;" horiz-adv-x="399" 
d="M60 697l24 27c21 -25 56 -65 118 -65c54 0 92 33 117 64l20 -26c-27 -38 -68 -81 -139 -81c-79 0 -123 54 -140 81z" />
    <glyph glyph-name="uniF6F5" unicode="&#xf6f5;" horiz-adv-x="397" 
d="M197 592l-137 115l26 31l113 -95l113 95l25 -31l-136 -115h-4z" />
    <glyph glyph-name="uniF6F6" unicode="&#xf6f6;" horiz-adv-x="411" 
d="M209 736l142 -114l-25 -32l-119 96l-121 -95l-26 31l145 114h4z" />
    <glyph glyph-name="uniF6F7" unicode="&#xf6f7;" horiz-adv-x="191" 
d="M60 668c0 20 17 33 37 33c17 0 34 -13 34 -33c0 -23 -17 -37 -34 -37c-20 0 -37 14 -37 37z" />
    <glyph glyph-name="uniF6F8" unicode="&#xf6f8;" horiz-adv-x="420" 
d="M360 726l-129 -137l-25 19l116 147zM204 731l-115 -142l-29 19l106 151z" />
    <glyph glyph-name="uniF6F9" unicode="&#xf6f9;" horiz-adv-x="453" 
d="M20 164v55l69 34v272h55v-244l119 59v-54l-119 -60v-171h292v-55h-347v198z" />
    <glyph glyph-name="uniF6FA" unicode="&#xf6fa;" horiz-adv-x="856" 
d="M465 0v29c-37 -22 -86 -37 -143 -37c-165 0 -279 106 -279 270c0 150 104 270 275 270c61 0 108 -14 147 -36v29h324v-52h-269v-181h244v-52h-244v-188h277v-52h-332zM326 44c59 0 103 16 139 42v353c-37 27 -83 41 -143 41c-132 0 -221 -90 -221 -218
c0 -131 93 -218 225 -218z" />
    <glyph glyph-name="uniF6FB" unicode="&#xf6fb;" horiz-adv-x="306" 
d="M230 -148l16 -33c-17 -11 -46 -19 -73 -19c-50 0 -113 21 -113 91c0 79 95 123 179 123v-14c-64 0 -127 -40 -127 -93c0 -52 47 -64 73 -64c12 0 28 1 45 9z" />
    <glyph glyph-name="uniF6FC" unicode="&#xf6fc;" horiz-adv-x="332" 
d="M60 654c0 57 46 104 105 104c60 0 107 -47 107 -104s-47 -102 -107 -102c-59 0 -105 45 -105 102zM95 655c0 -41 31 -72 71 -72s71 31 71 72c0 40 -31 72 -71 72s-71 -32 -71 -72z" />
    <glyph glyph-name="uniF6FD" unicode="&#xf6fd;" horiz-adv-x="473" 
d="M371 136c0 136 -314 82 -314 260c0 75 59 136 186 136c61 0 139 -25 172 -61l-26 -41c-36 32 -100 50 -149 50c-77 0 -125 -34 -125 -86c0 -130 315 -73 315 -261c0 -86 -83 -141 -186 -141c-87 0 -166 31 -204 77l32 38c38 -37 102 -63 175 -63c61 0 124 31 124 92z
M234 592l-137 115l26 31l113 -95l113 95l25 -31l-136 -115h-4z" />
    <glyph glyph-name="uniF6FE" unicode="&#xf6fe;" horiz-adv-x="425" 
d="M83 616l-23 25c38 38 72 52 101 52c47 0 70 -46 111 -46c23 0 43 11 74 38l19 -27c-37 -38 -70 -54 -98 -54c-44 0 -67 46 -112 46c-20 0 -44 -12 -72 -34z" />
    <glyph glyph-name="uniF6FF" unicode="&#xf6ff;" horiz-adv-x="514" 
d="M49 473v52h425v-36l-360 -437h368v-52h-449v36l359 437h-343zM254 592l-137 115l26 31l113 -95l113 95l25 -31l-136 -115h-4z" />
    <glyph glyph-name="uniF730" unicode="&#xf730;" horiz-adv-x="620" 
d="M54 250c0 135 96 259 256 259s256 -124 256 -259s-96 -259 -256 -259s-256 124 -256 259zM109 250c0 -110 76 -207 201 -207c126 0 201 97 201 207c0 112 -77 207 -201 207s-201 -95 -201 -207z" />
    <glyph glyph-name="uniF731" unicode="&#xf731;" horiz-adv-x="368" 
d="M48 398l156 110h35v-508h-55v439l-117 -87z" />
    <glyph glyph-name="uniF732" unicode="&#xf732;" horiz-adv-x="526" 
d="M51 0v40c119 48 331 151 331 289c0 74 -43 129 -132 129c-61 0 -133 -35 -151 -123l-36 30c19 95 109 145 187 145c130 0 184 -77 184 -171c0 -153 -189 -260 -258 -287h292v-52h-417z" />
    <glyph glyph-name="uniF733" unicode="&#xf733;" horiz-adv-x="533" 
d="M249 -209c-89 0 -168 37 -204 121l31 36c36 -75 106 -105 173 -105c98 0 158 65 158 150c0 83 -65 139 -152 139h-60v52h54c66 0 131 60 131 142c0 85 -53 131 -134 131c-79 0 -125 -39 -152 -96l-31 33c28 73 98 115 187 115c114 0 185 -66 185 -176
c0 -73 -39 -140 -111 -169v-3c88 -13 138 -89 138 -170c0 -123 -91 -200 -213 -200z" />
    <glyph glyph-name="uniF734" unicode="&#xf734;" horiz-adv-x="538" 
d="M349 -200v200h-325v35l298 465h60l-288 -448h255v213h52v-213h103v-52h-103v-200h-52z" />
    <glyph glyph-name="uniF735" unicode="&#xf735;" horiz-adv-x="518" 
d="M113 164l43 336h304v-52h-259l-30 -228c17 5 43 9 69 9c128 0 221 -83 221 -212c0 -141 -101 -226 -217 -226c-75 0 -156 33 -199 111l31 37c37 -65 108 -96 169 -96c91 0 161 72 161 172c0 95 -74 167 -187 167c-39 0 -80 -8 -106 -18z" />
    <glyph glyph-name="uniF736" unicode="&#xf736;" horiz-adv-x="550" 
d="M54 248c0 257 182 427 337 461l22 -39c-133 -32 -271 -152 -299 -355c28 62 89 114 182 114c121 0 203 -89 203 -216c0 -131 -101 -222 -208 -222c-156 0 -237 120 -237 257zM109 248c0 -106 59 -205 181 -205c86 0 154 76 154 166c0 94 -56 171 -164 171
c-98 0 -155 -73 -171 -132z" />
    <glyph glyph-name="uniF737" unicode="&#xf737;" horiz-adv-x="475" 
d="M34 448v52h404v-32l-266 -668h-58l260 648h-340z" />
    <glyph glyph-name="uniF738" unicode="&#xf738;" horiz-adv-x="591" 
d="M280 386h31c64 0 130 58 130 135c0 87 -72 136 -147 136c-76 0 -144 -51 -144 -136c0 -77 66 -135 130 -135zM310 334h-26c-85 0 -158 -61 -158 -144c0 -86 76 -147 169 -147c96 0 170 57 170 147c0 91 -71 144 -155 144zM296 -9c-118 0 -225 71 -225 190
c0 84 56 157 142 177v3c-67 20 -118 92 -118 166c0 110 90 182 200 182s201 -72 201 -182c0 -68 -45 -138 -121 -165v-3c83 -11 145 -81 145 -174c0 -123 -106 -194 -224 -194z" />
    <glyph glyph-name="uniF739" unicode="&#xf739;" horiz-adv-x="548" 
d="M494 249c0 -262 -148 -431 -342 -458l-19 41c165 30 283 155 301 350c-27 -62 -89 -107 -178 -107c-125 0 -208 96 -208 214c0 131 110 220 216 220c156 0 230 -117 230 -260zM439 249c0 106 -52 208 -173 208c-86 0 -163 -74 -163 -164c0 -87 57 -169 166 -169
c97 0 155 66 170 125z" />
    <glyph glyph-name="uniF760" unicode="&#xf760;" horiz-adv-x="272" 
d="M185 588l-125 131l33 39l119 -142z" />
    <glyph glyph-name="uniF761" unicode="&#xf761;" horiz-adv-x="574" 
d="M17 0l247 529h46l247 -529h-59l-77 167h-271l-77 -167h-56zM285 461l-112 -243h224z" />
    <glyph glyph-name="uniF762" unicode="&#xf762;" horiz-adv-x="512" 
d="M89 1v523c31 1 111 4 161 4c137 0 182 -58 182 -130c0 -68 -48 -112 -109 -124v-1c83 -9 130 -51 130 -124c0 -106 -88 -152 -205 -152c-49 0 -126 2 -159 4zM255 243h-111v-190c21 -1 72 -4 107 -4c92 0 147 33 147 102c0 59 -51 92 -143 92zM249 476
c-33 0 -83 -2 -105 -3v-181h112c66 0 121 35 121 93c0 59 -38 91 -128 91z" />
    <glyph glyph-name="uniF763" unicode="&#xf763;" horiz-adv-x="535" 
d="M484 92l22 -42c-39 -36 -110 -58 -178 -58c-171 0 -285 106 -285 270c0 148 103 270 279 270c72 0 130 -19 173 -50l-26 -41c-40 25 -86 39 -147 39c-132 0 -221 -90 -221 -218c0 -131 93 -218 231 -218c58 0 112 18 152 48z" />
    <glyph glyph-name="uniF764" unicode="&#xf764;" horiz-adv-x="602" 
d="M89 0v525h9c40 0 92 2 141 2c228 0 320 -116 320 -258c0 -152 -109 -271 -327 -271c-40 0 -88 2 -136 2h-7zM237 475c-39 0 -62 -1 -93 -2v-421c43 -1 83 -2 90 -2c175 0 267 93 267 219c0 118 -80 206 -264 206z" />
    <glyph glyph-name="uniF765" unicode="&#xf765;" horiz-adv-x="481" 
d="M89 0v525h324v-52h-269v-181h245v-52h-245v-188h277v-52h-332z" />
    <glyph glyph-name="uniF766" unicode="&#xf766;" horiz-adv-x="447" 
d="M89 0v525h325v-52h-270v-197h246v-52h-246v-224h-55z" />
    <glyph glyph-name="uniF767" unicode="&#xf767;" horiz-adv-x="593" 
d="M328 212v49h214v-197c-50 -46 -143 -72 -213 -72c-174 0 -286 106 -286 270c0 150 110 270 278 270c76 0 131 -17 178 -50l-25 -44c-37 28 -89 42 -146 42c-135 0 -227 -89 -227 -218c0 -132 93 -218 229 -218c58 0 123 18 160 50v118h-162z" />
    <glyph glyph-name="uniF768" unicode="&#xf768;" horiz-adv-x="633" 
d="M489 0v242h-345v-242h-55v525h55v-231h345v231h55v-525h-55z" />
    <glyph glyph-name="uniF769" unicode="&#xf769;" horiz-adv-x="268" 
d="M106 0v525h55v-525h-55z" />
    <glyph glyph-name="uniF76A" unicode="&#xf76a;" horiz-adv-x="299" 
d="M210 525v-407c0 -77 -32 -125 -118 -125c-36 0 -67 13 -82 26l19 43c13 -9 35 -17 55 -17c58 0 71 35 71 81v399h55z" />
    <glyph glyph-name="uniF76B" unicode="&#xf76b;" horiz-adv-x="529" 
d="M497 525l-263 -247l274 -278h-75l-267 274l259 251h72zM89 0v525h55v-525h-55z" />
    <glyph glyph-name="uniF76C" unicode="&#xf76c;" horiz-adv-x="453" 
d="M89 0v525h55v-470h292v-55h-347z" />
    <glyph glyph-name="uniF76D" unicode="&#xf76d;" horiz-adv-x="724" 
d="M89 0v525h56l223 -276l214 276h53v-525h-55v442l-212 -270h-8l-216 267v-439h-55z" />
    <glyph glyph-name="uniF76E" unicode="&#xf76e;" horiz-adv-x="650" 
d="M561 0h-44l-376 434v-434h-52v525h44l376 -435v435h52v-525z" />
    <glyph glyph-name="uniF76F" unicode="&#xf76f;" horiz-adv-x="650" 
d="M43 262c0 152 118 270 282 270c161 0 282 -112 282 -270c0 -155 -121 -270 -282 -270s-282 111 -282 270zM101 262c0 -124 98 -218 224 -218c133 0 224 94 224 218c0 126 -98 218 -224 218c-127 0 -224 -92 -224 -218z" />
    <glyph glyph-name="uniF770" unicode="&#xf770;" horiz-adv-x="481" 
d="M144 0h-55v525c31 0 109 2 143 2c160 0 206 -81 206 -166c0 -89 -62 -168 -203 -168c-25 0 -60 1 -91 3v-196zM237 475c-24 0 -70 -1 -93 -2v-224c30 -2 58 -4 88 -4c99 0 148 48 148 116c0 66 -40 114 -143 114z" />
    <glyph glyph-name="uniF771" unicode="&#xf771;" horiz-adv-x="650" 
d="M43 262c0 152 118 270 282 270c161 0 282 -112 282 -270c0 -79 -32 -147 -84 -196l60 -66h-65l-33 36c-45 -28 -100 -44 -160 -44c-161 0 -282 111 -282 270zM101 262c0 -124 98 -218 224 -218c47 0 89 12 123 33l-48 54l37 33l50 -57c39 39 62 93 62 155
c0 126 -98 218 -224 218c-127 0 -224 -92 -224 -218z" />
    <glyph glyph-name="uniF772" unicode="&#xf772;" horiz-adv-x="517" 
d="M144 0h-55v525c31 0 106 2 138 2c162 0 206 -74 206 -158c0 -79 -55 -133 -126 -148l185 -221h-70l-172 208h-106v-208zM229 475c-17 0 -64 -1 -85 -2v-213h95c69 0 136 43 136 109c0 58 -36 106 -146 106z" />
    <glyph glyph-name="uniF773" unicode="&#xf773;" horiz-adv-x="473" 
d="M371 136c0 136 -314 82 -314 260c0 75 59 136 186 136c61 0 139 -25 172 -61l-26 -41c-36 32 -100 50 -149 50c-77 0 -125 -34 -125 -86c0 -130 315 -73 315 -261c0 -86 -83 -141 -186 -141c-87 0 -166 31 -204 77l32 38c38 -37 102 -63 175 -63c61 0 124 31 124 92z" />
    <glyph glyph-name="uniF774" unicode="&#xf774;" horiz-adv-x="484" 
d="M8 473v52h468v-52h-207v-473h-55v473h-206z" />
    <glyph glyph-name="uniF775" unicode="&#xf775;" horiz-adv-x="613" 
d="M532 525v-306c0 -160 -102 -226 -218 -226c-134 0 -234 78 -234 231v301h55v-290c0 -119 69 -190 179 -190c98 0 163 60 163 186v294h55z" />
    <glyph glyph-name="uniF776" unicode="&#xf776;" horiz-adv-x="536" 
d="M528 525l-237 -529h-40l-244 529h62l204 -452l196 452h59z" />
    <glyph glyph-name="uniF777" unicode="&#xf777;" horiz-adv-x="785" 
d="M775 525l-166 -525h-49l-165 435l-160 -435h-51l-174 525h62l142 -436l157 436h52l161 -437l136 437h55z" />
    <glyph glyph-name="uniF778" unicode="&#xf778;" horiz-adv-x="539" 
d="M511 525l-206 -258l214 -267h-68l-182 225l-181 -225h-68l214 267l-205 258h68l173 -216l173 216h68z" />
    <glyph glyph-name="uniF779" unicode="&#xf779;" horiz-adv-x="483" 
d="M473 525l-205 -298v-227h-55v227l-203 298h67l166 -246l167 246h63z" />
    <glyph glyph-name="uniF77A" unicode="&#xf77a;" horiz-adv-x="514" 
d="M49 473v52h425v-36l-360 -437h368v-52h-449v36l359 437h-343z" />
    <glyph glyph-name="uniF7A8" unicode="&#xf7a8;" horiz-adv-x="360" 
d="M60 661c0 18 15 31 33 31c15 0 31 -13 31 -31c0 -20 -16 -33 -31 -33c-18 0 -33 13 -33 33zM236 661c0 18 15 31 33 31c16 0 31 -13 31 -31c0 -20 -15 -33 -31 -33c-18 0 -33 13 -33 33z" />
    <glyph glyph-name="uniF7AF" unicode="&#xf7af;" horiz-adv-x="372" 
d="M60 647v43h252v-43h-252z" />
    <glyph glyph-name="uniF7B4" unicode="&#xf7b4;" horiz-adv-x="272" 
d="M212 719l-125 -131l-27 28l120 142z" />
    <glyph glyph-name="uniF7B8" unicode="&#xf7b8;" horiz-adv-x="330" 
d="M60 -174l16 27c23 -14 50 -22 72 -22c40 0 70 17 70 46s-19 47 -71 47h-6v76h30v-50c68 -2 99 -31 99 -76s-42 -77 -115 -77c-42 0 -70 14 -95 29z" />
    <glyph glyph-name="uniF7E0" unicode="&#xf7e0;" horiz-adv-x="574" 
d="M17 0l247 529h46l247 -529h-59l-77 167h-271l-77 -167h-56zM285 461l-112 -243h224zM311 588l-125 131l33 39l119 -142z" />
    <glyph glyph-name="uniF7E1" unicode="&#xf7e1;" horiz-adv-x="574" 
d="M17 0l247 529h46l247 -529h-59l-77 167h-271l-77 -167h-56zM285 461l-112 -243h224zM392 719l-125 -131l-27 28l120 142z" />
    <glyph glyph-name="uniF7E2" unicode="&#xf7e2;" horiz-adv-x="574" 
d="M17 0l247 529h46l247 -529h-59l-77 167h-271l-77 -167h-56zM285 461l-112 -243h224zM290 736l142 -114l-25 -32l-119 96l-121 -95l-26 31l145 114h4z" />
    <glyph glyph-name="uniF7E3" unicode="&#xf7e3;" horiz-adv-x="574" 
d="M17 0l247 529h46l247 -529h-59l-77 167h-271l-77 -167h-56zM285 461l-112 -243h224zM157 616l-23 25c38 38 72 52 101 52c47 0 70 -46 111 -46c23 0 43 11 74 38l19 -27c-37 -38 -70 -54 -98 -54c-44 0 -67 46 -112 46c-20 0 -44 -12 -72 -34z" />
    <glyph glyph-name="uniF7E4" unicode="&#xf7e4;" horiz-adv-x="574" 
d="M17 0l247 529h46l247 -529h-59l-77 167h-271l-77 -167h-56zM285 461l-112 -243h224zM167 661c0 18 15 31 33 31c15 0 31 -13 31 -31c0 -20 -16 -33 -31 -33c-18 0 -33 13 -33 33zM343 661c0 18 15 31 33 31c16 0 31 -13 31 -31c0 -20 -15 -33 -31 -33
c-18 0 -33 13 -33 33z" />
    <glyph glyph-name="uniF7E5" unicode="&#xf7e5;" horiz-adv-x="574" 
d="M17 0l247 529h46l247 -529h-59l-77 167h-271l-77 -167h-56zM285 461l-112 -243h224zM181 658c0 57 46 104 105 104c60 0 107 -47 107 -104s-47 -102 -107 -102c-59 0 -105 45 -105 102zM216 659c0 -41 31 -72 71 -72s71 31 71 72c0 40 -31 72 -71 72s-71 -32 -71 -72z
" />
    <glyph glyph-name="uniF7E6" unicode="&#xf7e6;" horiz-adv-x="786" 
d="M401 0v170h-215l-130 -170h-64l170 217l240 308h316v-52h-262v-181h238v-52h-238v-188h271v-52h-326zM401 446l-173 -224h173v224z" />
    <glyph glyph-name="uniF7E7" unicode="&#xf7e7;" horiz-adv-x="535" 
d="M206 -174l16 27c23 -14 50 -22 72 -22c40 0 70 17 70 46s-19 47 -71 47h-6v71c-148 15 -244 116 -244 267c0 148 103 270 279 270c72 0 130 -19 173 -50l-26 -41c-40 25 -86 39 -147 39c-132 0 -221 -90 -221 -218c0 -131 93 -218 231 -218c58 0 112 18 152 48l22 -42
c-39 -36 -110 -58 -178 -58h-11v-42c68 -2 99 -31 99 -76s-42 -77 -115 -77c-42 0 -70 14 -95 29z" />
    <glyph glyph-name="uniF7E8" unicode="&#xf7e8;" horiz-adv-x="481" 
d="M89 0v525h324v-52h-269v-181h245v-52h-245v-188h277v-52h-332zM277 588l-125 131l33 39l119 -142z" />
    <glyph glyph-name="uniF7E9" unicode="&#xf7e9;" horiz-adv-x="481" 
d="M89 0v525h324v-52h-269v-181h245v-52h-245v-188h277v-52h-332zM359 719l-125 -131l-27 28l120 142z" />
    <glyph glyph-name="uniF7EA" unicode="&#xf7ea;" horiz-adv-x="481" 
d="M89 0v525h324v-52h-269v-181h245v-52h-245v-188h277v-52h-332zM256 736l142 -114l-25 -32l-119 96l-121 -95l-26 31l145 114h4z" />
    <glyph glyph-name="uniF7EB" unicode="&#xf7eb;" horiz-adv-x="481" 
d="M89 0v525h324v-52h-269v-181h245v-52h-245v-188h277v-52h-332zM129 661c0 18 15 31 33 31c15 0 31 -13 31 -31c0 -20 -16 -33 -31 -33c-18 0 -33 13 -33 33zM305 661c0 18 15 31 33 31c16 0 31 -13 31 -31c0 -20 -15 -33 -31 -33c-18 0 -33 13 -33 33z" />
    <glyph glyph-name="uniF7EC" unicode="&#xf7ec;" horiz-adv-x="268" 
d="M106 0v525h55v-525h-55zM153 588l-125 131l33 39l119 -142z" />
    <glyph glyph-name="uniF7ED" unicode="&#xf7ed;" horiz-adv-x="268" 
d="M106 0v525h55v-525h-55zM251 719l-125 -131l-27 28l120 142z" />
    <glyph glyph-name="uniF7EE" unicode="&#xf7ee;" horiz-adv-x="268" 
d="M106 0v525h55v-525h-55zM138 736l142 -114l-25 -32l-119 96l-121 -95l-26 31l145 114h4z" />
    <glyph glyph-name="uniF7EF" unicode="&#xf7ef;" horiz-adv-x="268" 
d="M106 0v525h55v-525h-55zM14 661c0 18 15 31 33 31c15 0 31 -13 31 -31c0 -20 -16 -33 -31 -33c-18 0 -33 13 -33 33zM190 661c0 18 15 31 33 31c16 0 31 -13 31 -31c0 -20 -15 -33 -31 -33c-18 0 -33 13 -33 33z" />
    <glyph glyph-name="uniF7F0" unicode="&#xf7f0;" horiz-adv-x="617" 
d="M8 244v49h95v232h10c40 0 92 2 147 2c222 0 314 -120 314 -258c0 -149 -109 -271 -318 -271c-49 0 -98 2 -145 2h-8v244h-95zM260 475c-42 0 -69 -2 -102 -3v-179h159v-49h-159v-192c43 0 88 -2 95 -2c173 0 263 94 263 219c0 118 -80 206 -256 206z" />
    <glyph glyph-name="uniF7F1" unicode="&#xf7f1;" horiz-adv-x="650" 
d="M561 0h-44l-376 434v-434h-52v525h44l376 -435v435h52v-525zM191 616l-23 25c38 38 72 52 101 52c47 0 70 -46 111 -46c23 0 43 11 74 38l19 -27c-37 -38 -70 -54 -98 -54c-44 0 -67 46 -112 46c-20 0 -44 -12 -72 -34z" />
    <glyph glyph-name="uniF7F2" unicode="&#xf7f2;" horiz-adv-x="650" 
d="M43 262c0 152 118 270 282 270c161 0 282 -112 282 -270c0 -155 -121 -270 -282 -270s-282 111 -282 270zM101 262c0 -124 98 -218 224 -218c133 0 224 94 224 218c0 126 -98 218 -224 218c-127 0 -224 -92 -224 -218zM341 588l-125 131l33 39l119 -142z" />
    <glyph glyph-name="uniF7F3" unicode="&#xf7f3;" horiz-adv-x="650" 
d="M43 262c0 152 118 270 282 270c161 0 282 -112 282 -270c0 -155 -121 -270 -282 -270s-282 111 -282 270zM101 262c0 -124 98 -218 224 -218c133 0 224 94 224 218c0 126 -98 218 -224 218c-127 0 -224 -92 -224 -218zM435 719l-125 -131l-27 28l120 142z" />
    <glyph glyph-name="uniF7F4" unicode="&#xf7f4;" horiz-adv-x="650" 
d="M43 262c0 152 118 270 282 270c161 0 282 -112 282 -270c0 -155 -121 -270 -282 -270s-282 111 -282 270zM101 262c0 -124 98 -218 224 -218c133 0 224 94 224 218c0 126 -98 218 -224 218c-127 0 -224 -92 -224 -218zM329 736l142 -114l-25 -32l-119 96l-121 -95l-26 31
l145 114h4z" />
    </font>
</defs>
</svg>
